bin plik


Czytasz posty znalezione dla sw: bin plik





Temat: Title Bout Championship Boxing II




! C:Documents and SettingsCajunPulpitNowy folderfas-tcb2.rar: Błąd CRC skompresowanych danych w fas-tcb2.bin. Wolumin jest uszkodzony
! C:Documents and SettingsCajunPulpitNowy folderfas-tcb2.r00: Błąd CRC skompresowanych danych w fas-tcb2.bin. Wolumin jest uszkodzony
! C:Documents and SettingsCajunPulpitNowy folderfas-tcb2.r02: Błąd CRC skompresowanych danych w fas-tcb2.bin. Wolumin jest uszkodzony
! C:Documents and SettingsCajunPulpitNowy folderfas-tcb2.r03: Błąd CRC skompresowanych danych w fas-tcb2.bin. Wolumin jest uszkodzony
! C:Documents and SettingsCajunPulpitNowy folderfas-tcb2.r04: Błąd CRC skompresowanych danych w fas-tcb2.bin. Wolumin jest uszkodzony
! C:Documents and SettingsCajunPulpitNowy folderfas-tcb2.r05: Błąd CRC w fas-tcb2.bin. Plik jest uszkodzony
Przeczytaj wicej wiadomoci



Temat: Virtua Tennis

/> Pass Intruz013

KUNIEC

PC-Game->Wielkość 304MB->Format pliku BIN->rozpakować->zamontować obraz w deamonie lub alckohol->GRAMY
Polecam gre jest Świetna-Bardzo dobra grafika
Linki sprawdzone działaja w 100%
Przeczytaj wicej wiadomoci



Temat: Tail Concerto (PSX)

Tail Concerto to przygodowa gra 3D w stylu anime wydana przez CyberConnect 2. Opublikowana przez Bandai w Japonii w 1998 roku i przez Atlus w USA w 1999 roku.

Scenariusz gry toczy się wokół psa - oficera policji zwanego Waffle Ryebread i jego przygód polegających na zdobywaniu magicznych kryształów w celu ich zbadania. Większość gry polega na kontrolowaniu robotów o ludzkich cechach jak np. skakanie, wspinanie się.





LINK


KUNIEC

język: eng
po rozpakowaniu: plik .bin (599mb)
sprawdzone by Zibix89
Przeczytaj wicej wiadomoci



Temat: otwieramy "dziwne pliki" (iso, bin, cue, mdf, nrg, ccd)
Witam!

Jestem tu nowy więc proszę o wyrozumiałośc.
Ściągnęłem wczoraj z waszego forum film i nie wiem jak go obejrzec
Starałem się robic jak w wyżej, ale jak to teraz odtworzyc??

Dziękuję za odpowiedz!
Przepraszam jeśli w złym miejscu piszę.

P.S. Są dwa pliki bin i cue

P.S.2 Jeszcze jedno pytanie , jak teraz zrobic by utworzyc z tego normalny plik np avi??
Jest coś napisane o nero'nie, ale mówiąc szczerze nie bardzo rozumiem.
Przeczytaj wicej wiadomoci



Temat: otwieramy "dziwne pliki" (iso, bin, cue, mdf, nrg, ccd)

Witam!

Jestem tu nowy więc proszę o wyrozumiałośc.
Ściągnęłem wczoraj z waszego forum film i nie wiem jak go obejrzec
Starałem się robic jak w wyżej, ale jak to teraz odtworzyc??

Dziękuję za odpowiedz!
Przepraszam jeśli w złym miejscu piszę.

P.S. Są dwa pliki bin i cue

P.S.2 Jeszcze jedno pytanie , jak teraz zrobic by utworzyc z tego normalny plik np avi??
Jest coś napisane o nero'nie, ale mówiąc szczerze nie bardzo rozumiem.

prosta sprawa, instalujesz program Deamon Tools albo Alcohol 120% (w dziale programy jest) i po restarcie systemu masz nowy naped cd-rom (stworzony dzieki jednemu z programow), teraz wchodzisz do programu i szukasz opcji, ktora WKLADA obraz pliku (.bin) do tego wirtualnego nowego cd-romu... po wlozeniu masz sytuacje taka sama, jakbys wlozyl normalny cd-rom do normalnego napedu cd-rom
Przeczytaj wicej wiadomoci



Temat: Plik .BIN problem
Mam problem otóż mam kilka powtórek z Wining eleven 2008 na psp.
Plik ten ma format .bin i nie idzie go otworzyć ani ultraiso ani nero.
Czy ktoś zna jakiś sposób żeby ten plik a właściwie powtórkę przerobić na Format .flv??



z góry dzięki za odpowiedź Przeczytaj wicej wiadomoci



Temat: Z grą
Jeśli jest to gra na jakąś konsolę (bo te pliki mi się tak kojarzą) to wydziargaj ją na płytce i po sprawie (bezpośrednio pliki)

Jeśli wersja na PC - spróbuj podziałać na niej HJSPLIT'em... Połącz pliki i powstanie jeden plik *.bin. Plik odpal w daemon tools lub innym emu...
Przeczytaj wicej wiadomoci



Temat: Filmy w postaci .BIN
rozumiem ze pliki maja rozszerzenia bin,jak tak to wypal je np.ultraISO na plytke albo utworz plik cue i zamontuj w vitrualnym napedzie
otworz notatnik i wklej



FILE "nazwa-obrazu.BIN" BINARY
TRACK 01 MODE1/2352
INDEX 01 00:00:00
KUNIECi zapisz jako"nazwa pliku bin.cue"
Przeczytaj wicej wiadomoci



Temat: Jak wypalić ściągniętą z stąd grę PSX na CD ?!
Tak jak wyżej w temacie.

Ściągnołem z stąd Fife 2005 na PSX,

a dokładnie z tego linku:

wypakowałem plik Fifa2005_by_lukash231.rar
w nim byl plik Fifa2005 by lukash231.7z którego wypakowałem 7-zipem
po wypakowaniu tym programem mam folder Fifa2005 by lukash231 a w nim plik BIN o nazwie Fifa2005 i niewiem co mam teraz zrobić żeby to wypalić na CD i sprawnie działało na przerobionym PSX. POMÓŻCIE !!! Z góry dzięki !
Przeczytaj wicej wiadomoci



Temat: Pliki BIN [Problem]
witam zassalem sobie tą gre CSI Miami z tego lokum




KUNIEC

gre zassalem z tych linkow

http://80.150.6.24/toigamesload/csimiami.exe

http://80.150.6.24/toigamesload/csimiami-1.bin

http://80.150.6.24/toigamesload/csimiami-2.bin

http://80.150.6.24/toigamesload/csimiami-3.bin



pass: Kod:
www.gamedownload.com.br


a problem mam taki niemoge odpalic tej gry po zassaniu linkow mam takie pliki



wiecie jak to odpalic zeby poszla instalka ???

jak odpalam ten komputerek to nic sie niewlacza




po kiego dajecie w takich plikach gry jak nikt niewie jak to odpalic werrrrrrrr
Przeczytaj wicej wiadomoci



Temat: problem

http://www.enter.net.pl/forum/viewtopic.php?t=12165
KUNIEC
Jeśli chcesz wypalić na płytki, to musisz miec plik CUE. Jeśli go nie masz, to znajdź program CUEMAKER i za pomocą tego programu plik CUE wydobędziesz z pliku BIN.

Przeczytaj wicej wiadomoci



Temat: jak to nagrać - pliki bin i cue
Posiadam gre Maximo na ps2 sciagałem z aresa i mam pliki - .bin i - .cue i próbowałem wypalić ją na dvd decrypter i niby się nagrała ale ani nie chodzi na konsoli ani nawet w dvd romie jej nie czyta a przed nagraniem wyskakuje komunikat

OBRAZ PLIKU NIE WYDAJE SIE BYC PRAWIDLOWYM FORMATEM NAGRYWANIA PLYTY DVD

i chciałbym wiedzieć czy plik jest do dupy czy jakimś innym programem POMOCY


Przeczytaj wicej wiadomoci



Temat: format bin
witam,sciagnalem sobie mowa wersje Nero rozpakowalem i mialem 2 pliki bin i cue otworzylem plik cue Nero wyskoczylo mi okno do nagrania plytki z nowym Nero zgrałem plytke i nie wiem co jest grane na plytce sa pliki do instalacji a za cholere nie moge instalki uruchomoc moze ktos wie jak to rozgrysc bo juz brak mi sił Przeczytaj wicej wiadomoci



Temat: SWAT 4 - plik .cue
ściągnałem sobie grę SWAT 4 z tych linków


http://www.filefactory.com/file/28908a/
 http://www.filefactory.com/file/d1103e/
 http://www.filefactory.com/file/150753/
 http://www.filefactory.com/file/76fdb9/
 http://www.filefactory.com/file/defa28/
 http://www.filefactory.com/file/9a815a/
 http://www.filefactory.com/file/b26777/
 http://www.filefactory.com/file/bb8753/
 http://www.filefactory.com/file/ed9d23/
 http://www.filefactory.com/file/f70f46
KUNIEC

I tam były pliki .bin i jeden .cue. I jak probujue otworzyc plik .cue w Alcoholu to mi pisze cos takiego:


Cue sheet: line 1 - Plik nie jest dostępny
KUNIEC
Przeczytaj wicej wiadomoci



Temat: photoshop
mozecie uważac ze zadaje głupie pytania ale.... sciagnełem photoshopa i mam 3 rzeczy
keygena, i dwa pliki bin na których jest photoshop, problem z tym ze niewiem jak mam odtworzyc te pliki, prosze o pomoc


Naciskam na jednego i wyskakuje mi zebym wybrał program dzieki któremu mam to odtworzyc
Przeczytaj wicej wiadomoci



Temat: problem z obrazem
Hmm... plik .bin u mnie otwiera się normalnie bez innych plików. Jeśli u Ciebie nie działa to może znaczyć, że obraz z płyty jest zepsuty. Możesz spróbować zmienić jego format przy pomocy UltraIso ale nie gwarantuję, że zadziała.

BTW: Inne obrazy normalnie Ci działają?
Przeczytaj wicej wiadomoci



Temat: problem z Prison_Tycoon_2
mam problem
ściągłem grę Prison_Tycoon_2 z tych linkow


KUNIEC


KUNIEC
i po wypakowaniu jest jakiś plik BIN ,plik SFV, plik CUE
CO MAM Z TYMI PLIKAMI ZROBIć ??
CZYM JE OTWORZYć??


ZA KAżDą ODP +
Przeczytaj wicej wiadomoci



Temat: Piraci z Karaibów
Mam deamona 3.47. probowałem zrobic wirtualny napęd z tą płytą, jednak mi się to nie udalo, dlatego zadalem wam to pytanie. A więc, gdy probuje sobie zrobic wirtualne dyski, z tymi plytami (pierwszą lub drugą), wyskakuje mi taka informacja:
Unable to mount image. Cue sheet: line 1 - File not accessable.
I nie wiem co robic. A jeśli chodzi o plik .bin, to wiadomo, ze sie go na deamona nie da wgrac.
wiec trzeba chyba jedynie te plyty i nie wiem co robic. Proszę was o pomoc! Przeczytaj wicej wiadomoci



Temat: Piraci z Karaibów
Sprubuj tak krok po kroku ppm---> Virtual CD /DVD-ROM---> Device 0---> Mount Image---> otwiera ci sie okno szukasz folderu z filmem---> gdy juz go masz na samym dole okienka jest Files of Type: naciskasz tam zeby ci sie rozwinelo i dajesz All Files i znajdzie ci ten plik .bin teraz powinno wszystko dzialac potem juz robisz tak jak opisalem wczesniej. Jezeli to nie zadziala to sam juz nie wiem ... Przeczytaj wicej wiadomoci



Temat: Problem z zamontowaniem plików BIN i CUE
Witam ściągnąłem dodatki z tej strony

KUNIECod Pana
pojupoju
i dodatki te które on zamieścił po wypakowaniu mają rozszerzenie BIN i CUE niestety nie da się ich zamontować w Napędzie Virtualnym za pomocą Alcohol 120% ponieważ jak wyszukuje te pliki pisze taki komunikat Plik nie jest dostępny. Może mi ktoś powiedzieć jak zrobić z tych dodatków w tym formacie pożytek. Szkoda będzie jak tyle ściągania pójdzie na darmo.

Czekam na pomoc Oczywiście stawiam ++++
Przeczytaj wicej wiadomoci



Temat: Problem z zamontowaniem plików BIN i CUE

Spróbuj otworzyć plik bin w ultra ISO lub Win Image i skopiować zawartość płyty na dysk.

Spoko działa ten Twój sposób lecz wystąpił kolejny problem mianowicie :

po wypakowaniu tych wszystkich plików i zainstalowaniu gry prosi o plik ISO żeby mieć obraz płyty bo inaczej gra nie odpali :/ moje pytanie brzmi jak z tych plików które wypakowałem zrobić Plik ISO który załatwi już chyba sprawę
proszę o rady +++ Przeczytaj wicej wiadomoci



Temat: SvR09 na emulatorze
Po wypakowaniu mam 2 foldery i jeden plik :

UMD_DATA(plik bin)

PSP_GAME

inis

W inis plik o nazwie SPU2Ghz w PSP_GAME:

SYSDIR(folder z plikami BOOT i EBOOT(oba BIN))

USRDIR(folder z dzwiękiem wideo itp.)

2ikonki jakieś

plik PMF
plik SFO Przeczytaj wicej wiadomoci



Temat: Pliki BIN
Przekonwertuj za pomoca WinISO .BIN do .ISO i juz.

bądź Napisz własny
np. Total comanderze naciskasz Shift+F4
napisz np a.cue
W edycji pliku napis

FILE "nazwa pliku bin".BIN BINARY
TRACK 01 MODE1/2352
INDEX 01 00:00:00
gdzie kursywa to nazwa pliku typu bin
I tyle Przeczytaj wicej wiadomoci



Temat: Driv3r
Witam sciaglem Drivera 3:

Download: Kod:
http://80.150.6.24/toigamesload/driver3-1.bin
http://80.150.6.24/toigamesload/driver3-2.bin
http://80.150.6.24/toigamesload/driver3-3.bin
http://80.150.6.24/toigamesload/driver3-4.bin
http://80.150.6.24/toigamesload/driver3-5.bin
http://80.150.6.24/toigamesload/driver3-6.bin


Plik SETUP : Kod:
http://80.150.6.24/toigamesload/driver3.exe
KUNIEC

Sciaglem wszystko do jednego folderu i wlaczylem setup.exe i nic sie nie wlacza, prubowalem otworzyc Daemonem, alcoholem i winuha.
Format tych plikow: Bin.
Czy moglby ktos napisac jak to zainstalowac bede wdzieczny.
Za kazda propozycje dam +
Przeczytaj wicej wiadomoci



Temat: Znowu problem z rozpakowywaniem :?

Pomogliście mi obaj, wielkie dzięki już łapię o co w tym chodzi, ale mam inny problem - ani Daemon ani Alcohol 120% mi nie działają. Przy instalacji Daemona wyskakuje mi 'platform not supported'. A Alcohol nie chce się zainstalować... Są jeszcze jakieś inne?
jaki OS?? wersja Deamona (np zdarza się że ktoś ściąga wersję x64 a nie ma procka na 64 :] )??
WinME, 95 i 98 nie są obsługiwane przez najnowszego Deamona. Działa na Win2000, WinXP, Win2003
Alcohol nie działa bo....????? nie chce się zainstalować ale ocb?? jakiś błąd, coś wyskakuje?? jeśli chcesz żeby ktoś Ci pomógł to pisz więcej info
pliki bin i cue obsługuje poza Deamonem np: VirtualCD,
wypalić płytkę możesz ponadto przez Nero, Blind Write Suite, Fireburner, CDRWin, BurnAtOnce i wiele innych Przeczytaj wicej wiadomoci



Temat: gra.....plik bin;/;/
witam
otóż mój problem polega na tym że ściągnąłem gre z tego tematu

KUNIECwypakowałem to i zobaczylem zę jest ok. 20 plików bin ;/ i niewiedzialem czym to otworzyć jeżeli ktoś by mógł mi to wytłumaczyć z góry dzięki i plusik:P
Przeczytaj wicej wiadomoci



Temat: Problem z grą
ściągłem sobie gre na konsole PSX " Syphon Filter 3 " i przy wypakowywaniu są w pliki .BIN i .Cue i jest ten plik ( notatnik) error a to jego zawartosc :
CDmage 1.01.5 error report for image "Syphon Filter 3.cue"

Track #| Sector|Sync|Header|Subheader|EDC|Intermediate|ECC P|ECC Q|Severity|Content of sector
1| 63,327| No | No | Yes |No | N/A | N/A | N/A |High |ISO9660: bytes 432128-434175 of the file SCENES1.XA
1|106,860| No | No | Yes |No | N/A | No | No |High |ISO9660: bytes 0-2047 of the file MOVIE1.HOG

Total error count:2

I przy nagrywaniu tez jest error :/ wkładam płytke do psx'a i jest czarny obraz :/ nie wiem co jest :/ duzo wersji tej gry sciagałem i stale error:/
Pomóżcie! Przeczytaj wicej wiadomoci



Temat: Jak zmienić obraz ?
Ty chcesz nagrać ten obraz .mdf na płytę??? No to w Nero: Po rozpoczęciu nowej kompilacji przejdź do zakładki Plik -> Nagraj plik obrazu. Domyślnym rozszerzeniem plików obrazu w programie Nero jest .nrg jednak obsługuje on też inne dostępne formaty m.in. *.iso, *.bin, *.ccd. Musisz tylko w oknie "Otwieranie", w pasku Pliki typu: wybrać all files i wskazać plik .cue.
Pojawi się nowe okno w którym wystarczy kliknąć na Nagrywaj.......i to tyle....
Poczytaj tu:

http://www.searchengines.pl/index.php?act=ST&f=81&t=2030
KUNIEC
Znajdziesz tam wszystko o obrazach i ewentualnie jak przekonwertowac .mds na inny format, np. .iso.

EDIT:

http://videoaudio.pl/Czytaj-artykul-1.html
KUNIEC
Tutaj też masz napisane, jak nagrywa się obraz. Tylko ze to jest pokazane na przykładzie plików .bin.
Przeczytaj wicej wiadomoci



Temat: pytanko do szpecow komputerowych
witam mam jeszcze jedno pytanko do zawodowcow.
kurcze sciagnalem sobie film hostel z 6 linkow 6x100mb i ladnie mi sie to rorpakowalo i utworzyl sie jakis plik bin i co dalej nie idzie tego otworzyc allplayerem ani zadnym innym. nie mam za bardzo jeszcze takiego doswiadczenia przy komputerach jak moderatorzy tego forum wiec prosze was jeszcze raz o pomoc.

(czy moze mam sciagnac jeszcze z ponizszych linkow tez jest ich 6 cd2?? naprawde nie wiem)

prosze o odpowiedz bo normalnie oszaleje z tym filmem. z gory dziekuje. Przeczytaj wicej wiadomoci



Temat: Deamon tools problem z gra
Mam problem z gra basketball manager gra ma w deamonie lecz nic nie moge zagrac zainstalowalem gre biore plik bin w demon i nic wyskakuje komunikat::::You are not running requried software components to run the game Please, run Directx setup and/ or MS ADO components You can find these files on instalation disc

Prosze was pomuszcie mi plisssssssssssssssssss Przeczytaj wicej wiadomoci



Temat: problem
Ściagnałem grę i pokazuje się taki folder:


http://www.fotosik.pl/pokaz_obrazek/da2027157284bb83.html
KUNIEC

Otwieram folder PSP_GAME :


http://www.fotosik.pl/pokaz_obrazek/3c8d91683f9fc66a.html
KUNIEC

Potem mam pliki w dwóch folderach, są tam pliki .BIN, .SFO, .BIG, .PMF,

nie wiem co z tym zrobić...
Przeczytaj wicej wiadomoci



Temat: Rozszerzenie *.bin
A wiec sa 2 mozliwosci:
1: wystarcz że w Daemonie zaznaczysz aby pokazał wszystkie pliki i następnie zaznacz plik*.bin a resztę już sam program ładnie zrobi [zamontuje sie obraz ]

2: Sciagnij
http://www.idg.pl/ftp/mac_391/CueMaker.1.0.html
KUNIECi utworz plik .cue ,ktory powinno sie zamonotowac.

PS. A ten plik .exe to crack raczej . ;]]
Przeczytaj wicej wiadomoci



Temat: problem z instalacja GTA SA
witam otóz zassałem gierke z torrenta w jednym pliku ISO 3.95GB
po zamontowaniu obrazu w Alcoholu pojawil sie obraz plyty takie tam instalation gta sa direct ,readme no gdy klikam na instal to pokazuje sie instalszield co ciekawe Demo weszlem do katalogu z gra klikajac na setup nic sie nie dzieje wchodzac do pliku Bin jest tam crac hoodluum wiec to niemozliwe zeby to demo bylo

http://www.fotosik.pl/pokaz_obrazek/365a53bc176c87cf.html Przeczytaj wicej wiadomoci



Temat: Jak wypakować GG2 prze 7 zip
w tym archiwum jest CD1, CD2 (foldery)i serial oraz umn (pliki w formacie nfo - niedokonczone) w CD1 i 2 jest podzial na pliki bin i cue( tez nie dokonczone) zdjecia nie wyszly


http://img446.imageshack.us/my.php?image=ggiizippq1.jpg
wywalczylem to zdjako jako co to reszta jest wyjasniona!!!
Przeczytaj wicej wiadomoci



Temat: szukam gry na DW
próbowałem , sciaglem nową wersje deamona i pisze ze nie obslugiwany format ,

sciaglem starsza wersje to samo

alkohol jw.

poprostu do pliku bin o ile sie nie myle powinien byc tez miniobraz cue.

tak samo jak mds mdm


pozdro
Przeczytaj wicej wiadomoci



Temat: office
Musi iść deamonem tylko musisz mieć plik .cue do tego, poza tym możesz nagrać na płytkę wybierając nagraj plik obrazu i będzie działać.

Plik .cue stworzysz w notatniku wpisując to co poniżej, potem zmień rozszerzenie na .cue i już.

FILE "dokładna nazwa pliku.bin" BINARY
TRACK 01 MODE1/2352
INDEX 01 00:00:00 Przeczytaj wicej wiadomoci



Temat: Problem z The Sims 2 Zwierzaki
Ściągnąłem grę The Sims 2 Zwierzaki z tych linków:

http://www.sendspace.com/file/9looe1
http://www.sendspace.com/file/66y65x
http://www.sendspace.com/file/6mqetb
KUNIEC
Po rozpakowaniu powstały 2 pliki *.bin i *.cue, problem w tym że nie mogę tego obrazu zamątować na żaden wirtualny dysk, a po nagraniu go alcoholem na płycie przy instalacji wyskakuje błąd i trzeba ją przerwać na 37%. Co mam zrobić, aby zainstalować grę.
Z góry dziękuję za pomoc.
Przeczytaj wicej wiadomoci



Temat: rozszezennie BIN
Żeby zamontować plik .bin w wirtualnym napędzie musisz mieć do niego dodatkowy plik o tej samej nazwie i rozszerzeniu .cue.

Prościej będzie, jak sobie zmienisz rozszerzenie .bin na .iso. Wtedy obraz będzie bez problemów otwierany przez programy typu Alcohol 120% albo Daemon Tools.
Przeczytaj wicej wiadomoci



Temat: Problem z Crackiem - Codename Panzers CW
Witam

Mam niezłą zagwozdkę Z crackiem/aktywatorem do Codename panzers CW. plik bin skopiowałem do wskazanego folderu, potem exe tam gdzie miało być i nic się wielkiego nie wydażyło, poza tym że program (patch) wyświetlił: Nie mogę otworzyć pliku, może być używany. (tłumaczenie).
Pytanie: Co zrobić żeby zadziałało?

P.S. Używany Crack to: CPCW_Crack Przeczytaj wicej wiadomoci



Temat: PLIZ POMOCY!!!
...dla sprawdzenia poprawności ściągniętych plików *.iso, spróbuj najpier wypakować obraz za pomocą winrara...i sprawdź czy nie wywala żadnego komunikatu o błędzie...

..jeżeli jest to obraz *.cue i wyświetliło Ci podobny komunikat:

(Unable to mount image. Cue sheet: line 1 - File not accessable)

oznacza to ze musisz utworzyc nowy plik .cue lub otworzyć plik go w notatniku i przeedytować pierwszą linijkę, w której musi byc tylko:
FILE "dokładna nazwa pliku bin" BINARY
czyli np:
KOD
FILE "Thief_Deadly_Shadows-Razor1911-CD1.bin" BINARY

pozdro
Przeczytaj wicej wiadomoci



Temat: PLIK BIN

Zaraz zaraz głupoty gadacie...Do Daemona nie ładuje sie pliku .bin, tylko plik pomocniczy .cue. Jeśli go nie masz użyj programu CueMaker, żeby ten plik odtworzyć i dopiero plik .cue ładujesz do Daemona.

kolega ma racje plik BIN musi miec wspomaganie plik CUE Przeczytaj wicej wiadomoci



Temat: PLIK BIN
i po h*** mi to piszesz jakl i tak tego czytal niebede juz wiem co i jak i po 1 jakos otworzylem gre na 5 cd zainstalowalem i gram a byl tylko plik bin jak otworzylem ten plik przez demona to mialem tam tylko plik dat wiec mi glupot niegadaj moze u ciebie tak jest bo u mnie napewno nie chyba ze ten plik jkis niewidziLny jest Przeczytaj wicej wiadomoci



Temat: PLIK BIN

i po h*** mi to piszesz jakl i tak tego czytal niebede juz wiem co i jak i po 1 jakos otworzylem gre na 5 cd zainstalowalem i gram a byl tylko plik bin jak otworzylem ten plik przez demona to mialem tam tylko plik dat wiec mi glupot niegadaj moze u ciebie tak jest bo u mnie napewno nie chyba ze ten plik jkis niewidziLny jest
______


to jak wiesz co i jak to po co piszesz zeby ci ktos pomógł gówn......u
zastanów sie na drugi raz Przeczytaj wicej wiadomoci



Temat: PLIK BIN

to jak wiesz co i jak to po co piszesz zeby ci ktos pomógł gówn......u
zastanów sie na drugi raz

Dokładnie, rzadko ktoś mnie z równowagi tutaj wyprowadza, ale to już lekka przesada. Jak nie potrzebujesz pomocy, to po co piszesz! To że załadowałeś plik .bin do Daemona na razie jeszcze o niczym nie świadczy, skoro i tak masz z nim problem. Odtwórz plik .cue programem CueMaker zamiast tutaj prowadzić zbędne dyskusje...Do tej pory już byś to zrobił i wiedzielibyśmy, czy problem sie rozwiązał, czy nie...
Dzięki arek_22, "wykład" troszkę przy długi, ale spoko, są jeszcze ludzie, którzy potrafią użyć głowy... Przeczytaj wicej wiadomoci



Temat: Flauout 2 - Problem z rozpakowywaniem
A więc ściągam z ftp gierke a dokładnie z http://hypnoce12.free.fr/FlatOut.2-RELOADED/ gdy chce rozpakować winrarem 1 cd to pisze że musze rozpakować od poprzedniego wolumu alby wypakować plik bin a rozpakowuje napewno od 1. Moge scalić TC ale powstaje plik *.out i niewiem co z nim zrobić.
Za pomoc obiecujw ++++
Przeczytaj wicej wiadomoci



Temat: jak ja to mam niby wypakować albo coś takiego?
Witam!

mam taki problem z CSI Miami:

ściągnąłem grę z następujących linków:


 http://80.150.6.24/toigamesload/csimiami.exe

http://80.150.6.24/toigamesload/csimiami-1.bin

http://80.150.6.24/toigamesload/csimiami-2.bin

http://80.150.6.24/toigamesload/csimiami-3.bin
KUNIEC

po ściągnięciu otrzymałem pliki:
csimiami.exe (aplikacja)
csimiami-1.bin (plik)
csimiami-2.bin (plik)
csimiami-3.bin (plik)

i teraz nie mam pojęcia co mam z tym zrobić ;/

odpalam te aplikację ale nic się nie dzieje... prubowałem wsadzić te pliki do deamona ale niestety XD

czy wie ktoś co musze z tym zrobić bo mam w kolejce nstępępne giercyny i tam jest tak samo ;/

z niecierpliwością czekam na odpowiedz!
Przeczytaj wicej wiadomoci



Temat: jak ja to mam niby wypakować albo coś takiego?
jak mi powiesz jak mam użyć tego programu to będzie spoko XD

dawałem ,,wypakuj'' to mi tylko przekopiowywało plik .bin w miejsce w którym miało go wypakować, jak dałem by na .iso to mi dawało w iso plik bin

(że jak wsadzałem obraz w virtuala to miałem ten .bin w środku)
Przeczytaj wicej wiadomoci



Temat: jak ja to mam niby wypakować albo coś takiego?
Plik .exe to za pewne crack. Przyda się dopiero po zainstalowaniu. Pliki .bin powinny otworzyć się jako obrazy dysków w deamonie lub w Alcoholu 120%. Jak zainstalujesz alcohola to klikasz na wirtualny dysk w moim komputerze PPM i dajesz zamontuj obraz, lub wchodzisz do aplikacji, dodajesz obraz do listy i przeciągasz do napędu. Przeczytaj wicej wiadomoci



Temat: jak ja to mam niby wypakować albo coś takiego?
przecież to pliki z toigamesload, a te pliki bin to nie są żadne obrazy tylko pliki binarne (nie każdy bin to obraz dysku) normalnie instalujesz z pliku csimiami.exe (wszystkie pliki muszą być w tym samym folderze) a swoja droga gratuluje:
1. powodzenia w szukaniu cracka do tej wersji
2. lubisz grać w niemieckie wersje ? Przeczytaj wicej wiadomoci



Temat: Odzyskiwanie danych - plik .bin i .sfo
Więc tak, podczas zapisywania stanu gry (Patapon 2) na PSP na kartę Sony Memory Stick Pro Duo 8GB Fake wypadła mi bateria (obudowa super) no i save poszedł papa. Teraz wyświetla corrupted data.
Chcę odzyskać plik SECURE.BIN (130~kb) i PARAM.SFO (5kb), tylko nie wiem jaki program te pliki odzyska. Jak znajduję jakieś programy, to albo do zdjęć albo do czego innego, ale akurat tych plików nie obsługują.
Jeśli ktoś wie jakim programem albo jak odzyskać te pliki, to będę bardzo wdzięczny. Oczywiście po tym jak wypadła bateria, wsadziłem ją, włączyłem grę i zobaczyłem corrupted data NIE ZAPISYWAŁEM NIC NA KARTĘ.
Przeczytaj wicej wiadomoci



Temat: Wielki Problem :/
Ściągnołem Alcohola 120% i prubowałem już dwa razy nagrać na niego te Digimony i tylko chyba 2 płytki zmarnowałem bo nadal mam ten plik BIN I mam takie zapytanie, czy niezrobił by ktoś jakiegoś poradnika albo chociaż napisał mi tu krok po kroku co mam zrobić aby ta gre muc póścić na Playstation bo na kompie coś mi nieidzie te granie wole na Playu.
Z góry dzięki wielkie dzięki
Przeczytaj wicej wiadomoci



Temat: Nagrywanie obrazu płyty
Witam, mam problem z nagraniem gry na ps2, dokladniej tekkena. Chodzi o to że po sciągnięciu i rozpakowaniu winrarem mam same pliki bin, zadnego cue. Wiem że jest program do robienia plików cue z bin ale nie wiem z którego bin'a mam zrobic cue. Wie ktos jak to działa ? Albo jakis inny sposób ?
Przeczytaj wicej wiadomoci



Temat: Pytanie dotyczące gier na Play Station 1
Musisz do pliku BIN zrobic plik CUE:
W Notepad wpisac:

FILE "Fifa2005.BIN" BINARY
(2 razy spacja) TRACK 01 MODE2/2352
(4 razy spacja) INDEX 01 00:00:00 (potem nacisnac Enter; nastepna linja (ang. line))

Schowac jako Fifa2005.CUE (nazwa pliku)

W nero wybierasz nagrac obraz CD albo cos w tym stylu (np. moze byc nagrac obraz na dysk), potem wybierasz plik CUE, i jest gotowe do nagrywania, tylko nagrywaj z najmniejszá prédkosciá np. 2X.

A ta druga gra to tak samo tylko nie musisz robic CUE tylko w Nero zamiast CUE wybierasz plik CCD i jest gotowe do nagrywania (2X). (Pliki wspólpracujá; plik IMG to obraz gry (czyli gra), plik SUB to dane o Audio (muzyka, SFX/effekty)).

Plik CUE wkladasz w ten sam folder co plik BIN.

Tak to Alcohol 120% jest najlepszy wg. mnie, w Data Type trzeba wybrac 'Play Station'.

Mozna tez uzyc Cue maker do robienia pliku CUE jesli go niema.

http://www.warezfaq.com/downloads.htm
Przeczytaj wicej wiadomoci



Temat: commandos
ja tez sciagnolem pliki bin z tego tematu i po zgraniu ich na cd nie dziaja, wyskakuje komunikat ze dysk jest niesformatowany, a gdy prubuje zainstalowac go w deamonie to program na chwile sie zawiesza i nic pozatym sie nie dzieje (piki cue tworzylem sam przez cuemaker). co mam zrobic zeby uruchomic gre?? Przeczytaj wicej wiadomoci



Temat: Dziwne pliki na dyskach.
Witam.
Dziś, gdy otworzyłem dysk C i E zobaczyłem na nich dziwne pliki :/
Na dysku C ujrzałem jakiś plik BIN o nazwie "logwmemory" i 2 dokumenty tekstowe o nazwach "csb" i "RHDSetup", natomiast na dysku E znalazłem 3 foldery o nazwach i zawartościach:
1. "b45711283e1057a6a5fd1c8044", w ktorym był folder "update" a w nim jakiś plik do instalacji czegoś o nazwie update.
2. "c5035ee7bd175a96d2a2b7eaba7d", w którym było to samo + plik dll o nazwie "wpdinstallutil.dll"
3. "e82402f4187c0a9bca", w którym było to samo co w 1.
Wcześniej jakoś tych plików nie było. Nie wiem co mam z nimi zrobić czy usunąć czy włączyć. Proszę o pomoc. Będzie +.
Przeczytaj wicej wiadomoci



Temat: Problem z rozpakowaniem


KUNIEC

Rozpakowanie wg mnie poszło w porządku, wprawdzie program nie prosił o następny wolumin, lecz raczej wszystko zostało odpowiednio rozpakowane. Teraz pytam: co dalej? Wypakowane archiwa zawierały jedynie bardzo duży plik BIN oraz mał plik CUE. W folderze znajdowało się również parę innych, małych plików ( plików. Co powinienem teraz zrobić, aby móc grać?

Szukałem odpowiedzi w innych tematach, lecz żaden nie okazał się wystarczająco pomocny.
Przeczytaj wicej wiadomoci



Temat: Szkoła Hakerów Interaktywny Zestaw Edukacyjny Daje +++++++++

Szkoleniowy system operacyjny - Aby umożliwić realizowanie materiału edukacyjnego osobom początkującym, do zestawu dołączony został specjalnie przygotowany, nie wymagający instalacji szkoleniowy system operacyjny. Po dwóch minutach od uruchomienia, Twoje środowisko testowe gotowe jest do pracy!


i są dwa pliki BIN i CUE
Bin ma 584 MB
a CUE 74 bajtów
nagrałem ten sam plik Bin na płytke i jak włoncze to się pokazuje takie coś

i co ja mam ztym zrobić żeby to odtworzyć

jeszcze opragramowanie jak otwieram to jest takie coś



Proszę pomuście
daje +++++++++++++++++++++++++++++++++++++++++++ Przeczytaj wicej wiadomoci



Temat: Problem z WP : Powrót Króla
Mam taki problem, mianowicie znalazłem upload wyżej wymienionej gry w tym temacie. Ściągnąłem 23 party, rozpakowałem, jest ok, zaczyna się instalacja. W połowie żąda CD2, więc ściągam z innego uploadu (ale w tym samym temacie) . I tutaj zaczyna się problem. Dla niektórych może być on śmieszny, ale ja się nie zbijam, tylko serio nie wiem, jak to uruchomić. Otóż mam Part 1 i 2, w obu są pliki BIN i CUE, BIN zajmuje dużo więcej od CUE. CUE da się nagrać, BINa nie, więc nagrywam na wirtuala Alcoholem 120% . No i mam ROTK_INSTALL_2 (tak pisze przy ikonie wirtualnego napędu) . Uruchamiam i wyskakuje mi błąd, bym włożył prawidłową płytę do napędu. Potem, gdy próbowałem jeszcze kilka razy, już nie wyskakiwał, tylko pokazywała się przez chwilę "klepsydra" i koniec.

Ktoś mógłby wyjaśnić? Nie chciałbym, żeby ponad 12h ściągania poszło na marne :/ Dam pochwałę. [/url] Przeczytaj wicej wiadomoci



Temat: emulacja na epsxe
Wejdz do folderu epsxe/bios i zobacz jaka masz nazwe pliku bin (wersja PAL ma Scph1001.bin) Skad sciagnac wersje NTSC nie wiem, ja swojego znalazlem na stronie ... SONY Moze tam bedzie. Ew Twoja gra nie jest kompatybilna z EPSXE. Sprobuj programu "pSX". Mi na epsxe nie wszystko dziala (np. Broken sword ma podobne objawy - czarny ekran i nic sie nie dzieje) Przeczytaj wicej wiadomoci



Temat: Problem z uruchomieniem TOCA Race Driver 3
lol zaden plik montujacy obrazy gier, programow i innych zeczy nie znajdzie ci plikow BIN bo ich po prostu nie widzi... sproboj sam a sie przekonasz...




edit: pomoze mi ktos czy nie?? dam + za pomoc...
a nastepnym razem nie wrzucajcie lipkow do gier skoro sami nie wiecie czy one dzialaja czy nie... Przeczytaj wicej wiadomoci



Temat: .BIN pomocy!
otworz notatnik i wklej to


FILE "nazwa-obrazu.BIN" BINARY
TRACK 01 MODE1/2352
INDEX 01 00:00:00
KUNIEC

i zapisz jako nazwa gry.cue
plik bin i cue raczej powniiny miec ta sama nazwe,tam gdzie pisze nazwa obrazu to wstaw nazwe pliku bin,powinno pomoc

Przeczytaj wicej wiadomoci



Temat: Crysis - warhead - problem >:-]
Siema

pobrałem crysis - warhead wersje team JPN wersja wysoko skompresowana ( nie RIP ) . i dostaje 5 pliki:




pliki JPN-CWH-1 i JPN-CWH-2 są to pliki.Bin które nie działają zamontowane w najnowszym daemon tools.

następnie po odpaleniu setup'a od razu jestem proszony o włożenie plyty. na pewno wszystko dobrze wypakowałem

pomocy
Przeczytaj wicej wiadomoci



Temat: pro evolution soccer 8

Pliki .sfv sa to pliki w ktorych zapisana jest suma kotrolna innych plikow. Uzywa sie go aby sprawdzic czy wszystkie pliki 001...014 sa sciagniete poprawnie. Wlacz sobie np. Total Commander i kliknij na ten plik .sfv. Jezeli ktorys plik bedzie zawieral bledy to musisz go sciagnac jeszcze raz.

Aby rozpakowac to co sciagneles wlacz WinRAR'a i otworz plik .001
Wybierz opcje wypadkuj a on automatycznie otworzy wszystki kolejne pliki i (najprawdopodobniej) zrobi Ci z tego pliki .bin i .cue, ktore sa obrazami plyt i trzeba potraktowac go np. Ahead NERO Burning Rom.


Pozdrawiam
Przeczytaj wicej wiadomoci



Temat: format .bin i .cue daje ++++++++++++++++++++++++++++++++++++

to jest już otworzony obraz płyty???

jak tak to jest zapewne płytka bootowalna, czyli nagraj na płytkę i odpal z niej kompa
jak kolega wspomnial moze to jaki program bootowalny nagraj plik bin na plyte przy pomocy np.ultraISO,bo bedziesz mial pewnosc czy to jest bootowalne,bedzie pisac
Przeczytaj wicej wiadomoci



Temat: Driv3r
Mam problem z grą Driver 3 (lub jak kto woli DRIV3R).Otóż ściągnąłem ją z tych linków:


http://80.150.6.24/toigamesload/driver3-1.bin
http://80.150.6.24/toigamesload/driver3-2.bin
http://80.150.6.24/toigamesload/driver3-3.bin
http://80.150.6.24/toigamesload/driver3-4.bin
http://80.150.6.24/toigamesload/driver3-5.bin
http://80.150.6.24/toigamesload/driver3-6.bin

Plik SETUP :
http://80.150.6.24/toigamesload/driver3.exe
KUNIEC

I po ściągnięciu mam takie coś:


Gdy chcę załadować któryś z plików w Daemonie nic nie wykrywa, gdy chcę uruchomić plik setup też nic nie wykrywa(przez sekunde wydaje sie jakby instalacja ruszyła).Więc moje pytanie brzmi:Co mam zrobic z tymi plikami żeby odpalić instalację? za dobrą odpowiedź dam + dnia 27 Cze 2007 18:11, w całości zmieniany 1 raz
Przeczytaj wicej wiadomoci



Temat: Profesor Henry Business English
Mam pytanie, w paczce są dwie płytki business english plus płyta Audio CD, o nią właśnie chodzi-> jest to obraz płyty-> dwa pliki: bin i cue, próbuje to nagrać nero, (wskazuje plik cue), nagrywam, i wysypują sie błędy przy sprawdzaniu kompilacji, płytki nie da się odczytać. próbuje te pliki otworzyć power iso-> wyskakuje błąd (plik jest uszkodzony lub nieobsługiwany), nawet przerobiłem to za pomocą nero na plik nrg, i ten plik nagrać, także nie można, podczas nagrania wyskakują te same błędy co przy bin, ktoś mi może cos poradzić na to? plik może jest uszkodzony? ktoś go sprawdził? jeżeli plik jest ok, to jak to w takim razie zrobic? chce to nagrać jako taki obraz płyty który by można było odczytać za pomocą power iso.

Proszę o odpowiedź chociażby tych co sprawdzili poprawność tego pliku, ja ściągałem całość dwa razy, za każdym razem to samo. Przeczytaj wicej wiadomoci



Temat: Jak nagrac plytki na PSX
powiem ci tak ja tez sie naczytalem zeby nagrywac alcoholem itd i gowno mi to dalo pieprzyli zeby nagrywac z predkoscia x4 (znajdz mi takie plyty ,teraz) ale jedna osoba napisla jak to zrobic dobrze i faktycznie nie ma lepszego sposobu ,a wiec zaczynamy
1.sciagnij program deamon tools pro i zainstaluj go(jak wejdziesz w moj komputer to bedziesz mial dodatkowy naped)
2.w ten naped zamontujesz obraz gry z wybranego przez siebie katalogu
3.gdy obraz juz zamontowany wlacz nero i wejdz w opcje ''kopiuj cd'' a tam ustawiasz na predkosc x8 no i pokazuje sie u gory jaki naped chcesz wybrac ,wybierasz ten wktorym jest ta gra np ''g'' i wypalasz gwarantuje ze gra bedzie dzialac
ja nagrywalem tak juz pliki bin img itd wszystko chodzi pieknie i nagrywaj sobie na plytkach verbatim albo tdk jesli ci nie bedzie dzialac tzn ze masz juz slaby laser i trzeba go wymienic ja tak mialem pozdrawiam Przeczytaj wicej wiadomoci



Temat: fifa 08

Powinienes miec jeszcze plik o takiej samej nazwie tylko z rozszerzeniem CUE, plik BIN bodajze zawiera tylko informacje potrzebne do otwarcia pliku obrazu...
Jesli masz je oba to powinno działac Deamonem, a jak nie to moze byc uszkodzony plik...


Wiem że powinie być jeszcze jeden plik ale go niema
Przeczytaj wicej wiadomoci



Temat: Emulacja
emulator mam a dokładnie nSX2

EDIT
Wypakowywuje tą gre i mam plik bin. Robie file--->emulation cd/dvd włączam ten plik cue i mam czarny ekran co robić??

Kompa mam dobrego
Amd athalon 2x2,2ghz
2gb ramu
i grafika GF8600
więc powinien pójśc ten emulator
Przeczytaj wicej wiadomoci



Temat: Co zrobić z plikiem typu bin?

W tray'u masz oknę Daemona, więc klkasz na nią prawym myszy i wybierasz wirtualny napęd (pewnie jest jeden) i ładujesz do niego obraz z dysku (czyli plik .cue)

plik bin władował mi sie na wirtualny napęd ale przy cue wyskakuje alert że nie ma możliwości Przeczytaj wicej wiadomoci



Temat: Qlimax dziwny format plików
Po pierwsze załatw sobie programik do otwierania plików SFV pt. "Flashsfv" jest on darmowy i znajdziesz gdzieś w internecie np. wpisz w wyszukiwarke .Programik ten otworzy ci plik SFV i sprawdzi czy wszystko co ściągnęło się jest w całości ,czy czegoś nie brakuje itd.
Dalej gdy wszystko będzie ok rozpakuj winrarem plik o najmniejszym rozszerzeniu np. *.00 *.01 - więc w podanym przypadku wypakował byś *.oo a reszta się scali w całość .Wypakowuj do tego samego folderu gdzie masz ściągniętą gre .Po wypakowaniu mogą ci się pojawić foldery z grą i masz gotowe ,ale czasem mogą stworzyć ci się pliki *.bin i *.cue .Gdy tak się stanie to otwierasz je jakimś programem do obrazów płyt bo te 2 pliki to właśnie obraz płyty - polecam DaemonTools (b.łatwy w obsłudze) albo Alcohol 120% (Potężny program z wieloma opcjami do otwierania ,wypalania i czego dusza zapragnie ,łamiący wszystkie zabezpieczenia). Przeczytaj wicej wiadomoci



Temat: alkochol
Utwórz napęd wirtualny, a następnie zamontuj w nim obraz. Pytanie czy masz
plik .cue , Alcohol ponoć powinien poradzić sobie bez tego pliku.
Aby nagrać na CD plik .bin wymagany jest pomocniczy plik o rozszerzeniu .cue (z reguly jest on dostepny razem z plikiem .bin). Jeżeli jednak nie posiadasz pliku .cue, możesz go sobie stworzyć przy pomocy programu CueMaker.
CueMaker wystarczy go uruchomić, wskazać plik BIN i chwilkę poczekać, a plik CUE zostanie utworzony automatycznie.
Pamiętaj tez, ze pliki .bin i .cue musza znajdować się w tym samym folderze!
Więcej informacji znajdziesz tu:


http://www.searchengines.pl/phpbb203/index.php?act=ST&f=81&t=2030
http://forum.enter.pl/archiwum/forum_watek_nr_9705.html

KUNIEC
Przeczytaj wicej wiadomoci



Temat: alkochol
Normalnie to nic sie tam nie ustawia. Problem polega może na tym, że Alkohol rzeczywiście nie widzi plików bin, tyle,że plik bin powinien występować w parze z plikięm cue, którego to właśnie Alkohol rozpoznaje. Jeśli masz sam bin to możesz spróbować go przekonwerterować na jakiś inny format. Ja kiedyś robiłem to takim programikiem WinIso (łatwo go znaleźć w sieci). Miałem zamiast bin iso i dalej to już robisz co chcesz.
Powodzenia
Przeczytaj wicej wiadomoci



Temat: Poszukuje gry na psx :)
Temat Metal Sluga 2 i X był rozpatrywany ale linki albo wygasły albo pliki po ściągnięciu były uszkodzone więc bardzo bym chciał o ponowne wstawienie linków .
Metal Slug 2 i M.S. X najlepiej jakby były linki nie w rapidzie tylko i bez hasła to musi być typ pliku obrazu po wypakowaniu który można by było nagrać na zwykłą płytę cd i pograć na konsoli psx typ pliku bin ale nie jestem pewny obok tego pliku jest plik obrazu z szarą płytką .
mogę się mylić ale spakowane ma coś około 165 mb a po rozpakowaniu około 456 mb
Liczę na waszą pomoc Przeczytaj wicej wiadomoci



Temat: Mission Combat Shock Force RIP
Ostatni ścągłem sobie rip Mission Combat Dhock Force. Wszystko ładnie 4 pliki... Problem pojawia się gdy rozpakuje te 4 pliki. Z tych 4 robi się 15...
Gdy te 15 rezpakuje pojawiaja się dwa pliki BIN i CUE
Tak jak na screenie

http://img207.imageshack.us/img207/3486/nowyobrazmapabitowapc0.jpg
Jak to zainstalować? Przeczytaj wicej wiadomoci



Temat: Plik BIN jak stworzyc??
Jeśli to jest plik w notatniku to możesz wejść w 'plik -> zapisz jako ... -> i tam wpisujesz nazwę pliku.bin ' . Ale jeśli to jest dany stworzony plik to możesz na niego kliknąć prawym przyciskiem myszy i 'zmień nazwę' po czym wpisujesz też nazwa_pliku.bin . Mam nadzieję że pomogłem
______
" ... Broni nie składa się przed wrogiem , broń składa się przed samym sobą ... "


www.torpedylodz.pzfa.pl
KUNIEC
Przeczytaj wicej wiadomoci



Temat: ".bin" jak to odpalic??

Od kiedy Demon montuje obrazy z roszrzezeniem bin ?????

To chyba jakas nowa wersja wyszla od wersji DT Pro??? Pliku bin sie nie otwiera !!!!!!!!!!!!!Tylko sie otwiera plik zalaczaczony CUE

Wiele razy ten temat byl poruszany pozdro

Tyle odpowiedzi i dopiero jeden przytomnie napisał! Dokładnie, ani do Daemona ani do Alcohola nie wrzuca sie pliku .bin, tylko plik pomocniczy .cue!! Jeśli tego pliku nie masz, użyj programu CueMaker, aby go odtworzyć. I tak, jak kolega loozak napisał, temat już był wiele razy poruszany, wystarczyło użyć opcji Szukaj... Przeczytaj wicej wiadomoci



Temat: PROŚBA DO SPECJALISTY
Mam mały problem z moją gierką którą ściągnołem
Pobrałem wszystkie party po czym rozpakowałem.
W Folderze znajduje sie Plik BIN ,Plik CUE , Dokument MSInfo o nazwie
Necz oraz Adobe Reader dokument.
Wszystko pokazane jest na screenie


http://img100.imageshack.us/img100/6845/problemxo8.png

Za pomoc będą konkretne plusiki +++ Przeczytaj wicej wiadomoci



Temat: .bin
Klikasz prawym na ikonke daemon tools'a / opcje / integracja z eksploratorem windows i wybierasz "zaznacz wszystkie"

A potem kliknij raz lewym p myszki i urządzenie 0 Pusty, następnie wskaż miejsce gdzie jest plik .bin

Nie zrobiłeś tego więc nie mogleś otworzyć w tym programie.
Przeczytaj wicej wiadomoci



Temat: Pliki BIN i CUE// gra
Ok szlag mnie trafił. ściągnąłem sobie grę w formacie bin i cue.
i nie wiem co robić..
mam już dość przeczesywania sieci w poszukiwaniu programu który - ważne - przekonwertuje mi pliki bin, cue inny format ale nie chce tego nagrywać na CD tylko mieć na dysku.

help me plizzzz Przeczytaj wicej wiadomoci



Temat: Problem z final fantasy >.>
Witam, mam taki problem, pobralem sobie finala IX, ale ten plik jest za duzy aby wrzucic na plytke, ma on 723mb, a plytka 700mb, nie ma sposobu na jakies zmniejszenie pliku ? Nie chodzi mi o zgranie gry zeby komus dac, ale zeby dzialalo na PSX, bo mam pliki BIN i CUE, i teraz tylko ten rozmiar mnie drazni
Przeczytaj wicej wiadomoci



Temat: Pliki Bin
Witam! Mam problem z otwarciem 2 plików obrazu płyty .bin a konkretnie z tymi plikami:


http://games.load.t-online.de/toigamesload/princeofpersia.exe
http://games.load.t-online.de/toigamesload/princeofpersia-1.bin
http://games.load.t-online.de/toigamesload/princeofpersia-2.bin
KUNIEC

jak je montuję w daemon tools lub alcohol 120% to po prostu się nie da otworzyć płyty, jakby była pusta(a pusta nie jest). Tak samo jak próbuję włączyć plik z 1 linku, nic się nie dzieje. Co zrobić aby to działało?? z góry dzięki.
Przeczytaj wicej wiadomoci



Temat: PROBLEM ---> jak otworzyc gre w formacie .bin ????

DEMON NIE OBSLUGUJE FORMATU .BIN

Dziwne... ja otwieram Biny zawsze w DeamonTools
Może i sam nie pokaże Ci w okienku "select new image file" plików bin ale chyba każdy głupi umie sobie ustawić "pliki typu" z all images na all files Przeczytaj wicej wiadomoci



Temat: Obraz płyty Windowsa XP -> BOOTowalny dysk
Witam
Właśnie ściągnąłem Windows'a XP Mini , jest to obraz płyty.
Chciałbym wypalić go na płycie tak aby chwilę po włączeniu komputera uruchomił mi się Windows ( Czyli co formatować , gdzie wina zainstalować itp. )
Proszę o pomoc , łatwo zarobić +++
W skrócie :
Mam Windowsa XP Mini ( Plik Bin ) chcę go wypalić na płytkę tak aby czytało mi ją po włączeniu komputera ,a nie dopiero w Windowsie. Przeczytaj wicej wiadomoci



Temat: Freak Out: Extreme Freeride
Freak Out Extreme Freeride 2007

Download


/>
KUNIEC

Password


www.tugawarez.com
KUNIEC


Albo

Freak Out Extreme Freeride 2007 ISO

Download

Plik cue


KUNIEC

Plik bin


KUNIEC
Przeczytaj wicej wiadomoci



Temat: The Sims 2: Zwierzaki
The Sims 2: Pets (PC)
Czwarty dodatek do The Sims 2 przynosi masę zwierzaków, głównie psów i kotów, ale również żółwi, rybek, a nawet fretek. Część z nich zyska trzy fazy życia i rozwinięte procedury sztucznej inteligencji.

obrazik plytki...


kod:cd plik bin

http://oreys.com/download/930703146375/rld-s2pe-www.thegenius.com.br.by.Articulador-.bin.html
KUNIEC

plus: plik cue

http://up-file.com/download/6e5db4911164/rld-s2pe.cue.html
KUNIEC
Przeczytaj wicej wiadomoci



Temat: Problem z age of empires the warchifs
oznacza to iz twoj plik cue jest uszkodzony mozesz otworzyc go w notatniku i sprawdzic czy sciezka do pliku bin jest poprawna lub uzyc programiku Cue Maker ktory na bazie pliku bin utworzy ci nowy plik cue

tu masz ten programik waga 300kb


KUNIEC
Przeczytaj wicej wiadomoci



Temat: Obraz plyty nie dziala ;/
Zrobilem tak jak napisaliscie i... nic nie pomoglo ;/. Zrobilem plik *.cue jak poradziliscie i zamontowalem. Teraz gdy probuje otworzyc zawartosc plyty to sie komputer zawiesza. Probowalem tez przerobic na plik *.iso ale wyskakuje error, ze "splintercell-1.bin/cue isn't a supported format". Wszystko wskazuje na wadliwe pliki bin. Sciagal ktos moze juz SC:PT i SC z tych ftp'ow? Sam juz nie wiem... a jestem pewien 100%, ze wszystko robie ok, bo to nie jest moj pierwszy kontakt z tego typu rzeczami.

Pozdr.
grv Przeczytaj wicej wiadomoci



Temat: Microsoft Office
stworz plik cue i otworz w wirytualnym napedzie,otworz notatnik i wklej


FILE "nazwa-obrazu.BIN" BINARY
TRACK 01 MODE1/2352
INDEX 01 00:00:00
KUNIECzapisz jako"nazwa pliku bin.cue"

Przeczytaj wicej wiadomoci



Temat: Need for Speed Underground 2 problem z obrazem
Witam, ściągnąłem sobie dzisiaj z DW (jak trzeba to dam linki) NFSU2, rozpakowuje sobie a tam dwa foldery - cd 1 i cd 2. Nic dziwnego - rozpakowałem je, wchodze dalej i widze sobie pliki gry jakieś i sobie myśle standard - to co powinno być na płytce... w sumie to nic jeszcze nie myślałem tylko zatrzymałem sie nagle... i pytanie - gdzie tu jest obraz ? Nie ma żadnego pliku BIN ani CUE ani innego, który chociaż rozmiarem by obraz przypominał. Ani w cd 1 ani w cd 2. Nie jest to RIP i nie widziałem plików wsadowych MS-DOS (znaczy jeden jest na cd 2 ale nic nie daje jak go klikne) po prostu nie wiem co robić. Gdy klikam setup, pojawia mi sie okno (to samo co autorun) i po kliknięciu Install, wyskakuje komunikat o włożenie płyty CD1... ciekawe jak mam ją włożyć jak nie ma obrazu... bynajmniej ja go tam nie widze.

Pomożecie ? Daję plusy, i z góry Dzięki.
Przeczytaj wicej wiadomoci



Temat: DRIVER 3 jak odpalic te plik
da sie bo to nie sa takie pliki bin o jakich myslicie ze mozna je odpalic przez np deamona jest to specjalnie spakowana gra i po to wlasnie jest w niej ten exec.

wiec tak sciagnij to



KUNIEC

zainstaluj nastepnie wejdz do katalogu gdzie masz pliki z gra i na execu nacisnij prawym myszy i daj Uniextract np do podkatalogu (tu juz pelna dowolnosc co dasz) po dosc dlugim ropakowywaniu wejdz do katalogu gdzie rozpakowales gre i zwyczajnie ja zainstaluj

pokaze jeszcze obrazek zeby nie bylo wątpliwości


Przeczytaj wicej wiadomoci



Temat: Sims 2 Ziwerzaki
matush1991 napisał/a:
The Sims 2: Pets (PC)
Czwarty dodatek do The Sims 2 przynosi masę zwierzaków, głównie psów i kotów, ale również żółwi, rybek, a nawet fretek. Część z nich zyska trzy fazy życia i rozwinięte procedury sztucznej inteligencji.

obrazik plytki...


kod:cd plik bin
Kod:
http://oreys.com/download/930703146375/rld-s2pe-www.thegenius.com.br.by.Articulador-.bin.html


plus: plik cue
Kod:
http://up-file.com/download/6e5db4911164/rld-s2pe.cue.html




Ściągnąłem z tych linków i jak chce zamontować obraz to mi pisze : Unable to mount image. File not accessable Dlaczego ????? O co chodzi pomożcie...
Przeczytaj wicej wiadomoci



Temat: RTL Biathlon 2007
witam sciągnąłem ta gre z ftp ftp://RTL:BIATHLON@140.135.5.139:1337/ rozpakowalem mam plik bin i cue montuje do daemona i zaczynam instalacje ale jak dochodzi do kopiowania pliku pc.pak wyskakuje mi blad Error While Copying
wiecie może co zrobić ?


już nie ważne ale zgadnijcie jaki był problem?
odlaczylem joystick i się normalnie zaisntalowało Przeczytaj wicej wiadomoci



Temat: Settlers 2 , 10 lecie
sciagnelem wszystkie pliki z tego topicu ale przy wypakowywaniu winrarem na 99-100 % wyskakuje blad ( Błąd CRC w rld-sett2.bin. Plik jest uszkodzony), myslalem ze to problem z 7 czescia, wiec sciagnelem ja jeszcze raz ale nie pomoglo. pozniej probowalem winzipem 11, to pokazalo ze to 1 czesc jest uszkodzona... sciagnelem ja jeszcze 2 razy ale bez rezultatu.... czy moglby ktos powiedziec co z tym zrobic / lub jeszcze raz wrzucic 1 czesc, bo niezbyt mi sie chce sciagac wszystko od nowa Przeczytaj wicej wiadomoci



Temat: Football Menager 2007
Niechcę zakładać odrębnego tematu, więc opiszę mój problem w tym topicu.

A więc ściągnąłem FM 07 z pierwszych linków z Wypakowałem wszystkie po kolei. Scaliłem i zrobiłem mi się plik o rozszerzeniu .out. Otworzyłem winrarem, a tam znajdował się plik .bin, więc chciałem go wypakować, ale przy 2% wyskakuje mi takie coś Co mam zrobić? Czy alcohol pomoże. Bardzo proszę o pomoc... Przeczytaj wicej wiadomoci



Temat: Football Menager 2007

Niechcę zakładać odrębnego tematu, więc opiszę mój problem w tym topicu.

A więc ściągnąłem FM 07 z pierwszych linków z Wypakowałem wszystkie po kolei. Scaliłem i zrobiłem mi się plik o rozszerzeniu .out. Otworzyłem winrarem, a tam znajdował się plik .bin, więc chciałem go wypakować, ale przy 2% wyskakuje mi takie coś Co mam zrobić? Czy alcohol pomoże. Bardzo proszę o pomoc...


otwórz pierwszy plik w winrarze, i następnie wypakuj

u mnie zadzialalo Przeczytaj wicej wiadomoci



Temat: Magic ISO Maker

Bardzo przydatne, wielofunkcyjne narzędzie służące do tworzenia obrazów dysków CD i DVD, wypalania CD oraz wykonywania kopii zapasowych płyt CD i DVD. Dzięki niemu można szybko i łatwo edytować (dodawać, kasować zmieniać nazwy, usuwać pliki wewnątrz pliku obrazu), tworzyć i konwertować większość najpopularniejszych formatów obrazów dysków. Magic ISO wykorzystuje do działania Windows Explorer, dzięki czemu z jego interfejsem nie będą mieli problemu nawet początkujący użytkownicy.
W najnowszej wersji dodano obsługę nagrywania plików obrazu na DVD+R/RW, DVD-R/RW. Można również otwierać, edytować i rozpakowywać pliki BIN-multi-session. Wprowadzono zmiany optymalizujące nagrywanie płyt.

Magic ISO v.5.3b221


KUNIEC
Przeczytaj wicej wiadomoci



Temat: Age Of Empires II - co i jak;p
heh stare czasy mi się przypomniały i ściągnąłem age of empires II



KUNIEC

W tym problem ,że mam tylko plik .bin i jakiś drugi;) i mam jeszcze z ostatniego patcha ikone AOE2.exe i Patch Updater i pisze ,że nie mam zainstalowanego aoe2 i dlatego patch sie nie odpala... prosze o pomoc;] oczywiscie +...
Przeczytaj wicej wiadomoci



Temat: bardzo łatwy plus :D

Wypakuj. Zacznij od pliku z ikonką 7zip, reszta sama poleci.

mozesz cos dokladniej ?

//Edit

wypakowalem ten plik zip i mam 2 inne pliki jeden ma wlasnie 240 mb jest to plik bin a drugi 2kb i jest to plik cue co dalej ??
Przeczytaj wicej wiadomoci



Temat: Masm32v8 ustawienia
Dnia Fri, 26 Aug 2005 15:23:06 +0200, Remek napisał(a):


Adres screena:
<script type=text/javascript
src=http://img361.imageshack.us/rnd_disp.php?g=error9il.png</script

Mam nadzieję, że to wystarczy, robiłem to po raz pierwszy
i mogłem coś sknocić.


oj troszeczke ;) poprawny adres to:
http://img361.imageshack.us/img_viewer_framed.php?loc=img361&image=er...


    Wiem. Mam go. Nie o to chodzi. Chciałem się upewnić
czy ja coś źle robię, czy Masm tak ma.


no jak patrze na ten error to do glowy przychodzi mi jedna mysl, mianowicie
masz zepsuty plik wsadowy ktory wykonuje ta opcje, zobacz co masz w pliku
/bin/BRES.BAT, jesli masz cos innego niz:

@echo off
masm32in c /v rsrc.rc
masm32incvtres /machine:ix86 rsrc.res
pause

to popraw zeby tak bylo.


Przy okazji chciałem powiedzieć, że coś się knoci na
serwerze pocztowym Neostrady, gdzie mam konto i na razie
nie wychodzą moje prywatne maile. Nie chcę zmieniać bo
jestem w paru miejscach zarejestrowany i zaraz bym dostał
masę pytań od adminów i robotów dlaczego zmieniam konto,
wątpliwości, zarzucanie bałaganiarstwa i nadużyć itp.
  Muszę to przeczekać, pewnie naprawią. To info dla tych,
którzy oczekują moich listów.


wlasnie dzis mail dotarl, zaledwie 5h opoznienia, wiec zle nie jest ;)

Przeczytaj wicej wiadomoci



Temat: problemy ze sciaganiem plikow bin
Sorry, ze na ta grupę, ale nie chce mi wyslać listu na news.task gda.pl?
Ciekawe dlaczego?  Bardzo prosze o pomoc.  Na tej grupie dowiedziałam sie,
ze mozna sciagac inaczej niz tylko satelitka. Próbuję ściagać pliki bin w
programie NewsGrabber Wpisałam serwer, ściagnełam
grupy - wszystko działa do tego momentu. Nie chcą się sciągać pliki.
Najpierw przez parę minut jest komunikat: cheking headers (coś takiego) i
potem już nic. W logach pokazuje 0 lines. (WinXP). Co robię
źle????????????????? Pozdr i dzięki
Przeczytaj wicej wiadomoci



Temat: problemy ze sciaganiem plikow bin


Sorry, ze na ta grupę, ale nie chce mi wyslać listu na news.task gda.pl?
Ciekawe dlaczego?  Bardzo prosze o pomoc.  Na tej grupie dowiedziałam sie,
ze mozna sciagac inaczej niz tylko satelitka. Próbuję ściagać pliki bin w
programie NewsGrabber Wpisałam serwer, ściagnełam
grupy - wszystko działa do tego momentu. Nie chcą się sciągać pliki.
Najpierw przez parę minut jest komunikat: cheking headers (coś takiego) i
potem już nic. W logach pokazuje 0 lines. (WinXP). Co robię
źle????????????????? Pozdr i dzięki


A propo sciagania plikow bin to gdzie znajde jakas pomoc lub zasadu obslugi
programu Forte Agent?

Pozdrawiam
PawSlodki

Przeczytaj wicej wiadomoci



Temat: problemy ze sciaganiem plikow bin
"PawSlodki"


A propo sciagania plikow bin to gdzie znajde jakas pomoc lub zasadu obslugi
programu Forte Agent?


Do ściągania plików z grup binarnych polecam darmowego GrabIt-a, jego
najnowsza wersja 1.4.2 beta obsługuje najnowszy standard kodowania "yEnc"
GrabIt 1.4.2 beta do pobrania tutaj:
http://www.shemes.com/grabit/index.php?p=download&v=142b

Przeczytaj wicej wiadomoci



Temat: problemy ze sciaganiem plikow bin
"bunia"


nie chce mi wyslać listu na news.task gda.pl?


Być może ten serwer nie lubi dialogowców.
Polecam ci wysyłać przez serwer news.onet.pl
A przy okazji do ściągania grup doinstaluj sobie do Outlooka dodatkowy
program Hamster - to takie turbo dopalenie niesamowicie przysapieszające
ściąganie grup.


Próbuję ściagać pliki bin w programie NewsGrabber


Do ściągania musisz użyć najnowszej wersji 1.4.2 beta, bo wcześniejsze
wersje nie potrafią dekodować najnowszego kodowania "yEnc"

Przeczytaj wicej wiadomoci



Temat: SuperBomberMan2 + slrn ;)
W artykule <slrn.pl.b5fq61.j1.fe@komputer.fenia.pl Bartosz Feński aka fEnIo napisał(a):

8 . Kto zagra ? :)
Ja ja ja :)


wypas.

A propo slrn w temacie ;), mój slrn bez żadnych makr etc wyświetla
piosenkę z xmms'a :)

Np: Diabolos Rising - Give Me Blood Or Give Me Death
A jak to zrobiłeś ?


bluszcz@~/download/slrn-0.9.7.4:vim src/post.c

o tak :)

A potem rekompilacja.

A generowanie pliku:

#!/bin/sh
echo "" /home/bluszcz/.nowplaying
#echo " Now playing:" /home/bluszcz/.nowplaying
if [ -r /tmp/xmms-info_bluszcz.0 ]; then
        cat /tmp/xmms-info|konwert cp1250-iso2|grep Title|sed s/Title:/Np:/ /home/bluszcz/.nowplaying
else
echo "Słucham jedynie szumu wiatraczków :)" /home/bluszcz/.nowplaying
fi

ps. jakieś namiary na grę sieciową ?


#apcoh

Np: KAT - Łza Dla Cieniów Minionych

Przeczytaj wicej wiadomoci



Temat: sortowanie kanałów (pixel view)
sprostowanie:

trochę się pośpieszyłem z radą nr 1. Teraz sprawdziłem, czy to działa i
okazuje się, że nie.
Edycja pliku *.bin nic nie da, pech chce, że trzymane są tam tylko nazwy
kanałów, a ich numery określone są po prostu kolejnością bloków.

Pozdrawiam,
Darek.

Przeczytaj wicej wiadomoci



Temat: Debian rescue CD - jak dostosować
Jak podmienić coś w rescue CD ? w artykule
http://www.debian.org/releases/stable/i386/ch-boot-floppy-techinfo.en...
jest napisane, że mozna podmontować plik .bin i dokonać zmian, tymczasem
jak probuje to robić wg tej instrukcji, czyli
#  mount -t auto -o loop rescue.bin /mnt
 wyswietla mi sie ze musze podac typ systemu
plikow. Jesli podaje ext2 zamiast auto, wyświetla z kolei
"mount: wrong fs type, bad option, bad superblock on /dev/loop0,
       or too many mounted file systems"
Przeczytaj wicej wiadomoci



Temat: Debian rescue CD - jak dostosować
Dnia 2004-08-12 22:30, Użytkownik Grzegorz napisał:


Jak podmienić coś w rescue CD ? w artykule
http://www.debian.org/releases/stable/i386/ch-boot-floppy-techinfo.en...
jest napisane, że mozna podmontować plik .bin i dokonać zmian, tymczasem
jak probuje to robić wg tej instrukcji, czyli
#  mount -t auto -o loop rescue.bin /mnt
 wyswietla mi sie ze musze podac typ systemu
plikow. Jesli podaje ext2 zamiast auto, wyświetla z kolei
"mount: wrong fs type, bad option, bad superblock on /dev/loop0,
       or too many mounted file systems"


A czemu nie -t iso9660 ?

Przeczytaj wicej wiadomoci



Temat: Debian rescue CD - jak dostosować


| #  mount -t auto -o loop rescue.bin /mnt
|  wyswietla mi sie ze musze podac typ systemu
| plikow. Jesli podaje ext2 zamiast auto, wyświetla z kolei
| "mount: wrong fs type, bad option, bad superblock on /dev/loop0,
|        or too many mounted file systems"

A czemu nie -t iso9660 ?


Z podmontowaniem ISO nie mam problemu,
ale w srodku są pliki .bin, których nie mogę
podmontować
( skopiowalem calosc do innego folderu )
- t iso9660 wyswietla ten sam komunikat
Chodzi mi o to jak dobrać się  i pozmieniać coś
w tych plikach

Przeczytaj wicej wiadomoci



Temat: Neostrada na modemie SpeedTouch 330
Czesc :]

Slychajcie mam taki duzy problem... Zamowiloem neo+ i dali mi modemik
SpeedTouch, ktorego nie moge uruchimic. Problem tkwi w USB... Moze wszytsko
po kolei. A wiec:

Chodzi o to, ze usb jest obrze (tak mi sie wydaje - kompilowalem jajko,
nawet stare 2.4.18 zainstalowalem i modconfem wrzucalem USB) i lampki sie
pala na zielono - usb i adls.

Tylko kiedy chce zrobic modem_run -f firmware.bin (firmware.bin mam z
MacOS - na stronkach pisali ze jest najlepszy), to dostaje komunikacik:

usb_control/bulk_ms: timeout
usbdevfs: USBDEVFS_BULK filed dev 2 ep 0x85 len 512 ret -110

Dida od usb raz zamryga, a to od dsla zapali sie na pomaranczowo, pozniej
troche pomryga i znow jest non-stop zapalona.
Niby powinno byc ok - tak ma wygladac w koncu synchronizacja lini. No ale mi
wywala przy tym blady.

Zrobilem ppp jak bylo napisane i daje pozniej

pppd call neostrada

i nic - w ifconfigu nie mam ppp.

Co moze byc zle z tym modem_run?
Dodam tylko ze probowalem ze sterami z plytni neo i tam jest zamiast
firmware.bin plik mg_cos_.o Podczas ladowania go (tegio mikrokodu) do modemu
pojawaia sie ten sam komunikat co wyzej.

Prosze o pomoc, bo juz drugi dzien mam neo i z windy musze siedziec :(

Pozdrawiam, Adrian.

Przeczytaj wicej wiadomoci



Temat: CGI nie dziaÂła tylko czemu...

On Thu, 1 Jul 2004 12:55:07 +0200, "seboizm" <lekf@wp.pl wrote:
http://www.yahnet.one.pl/cgi-bin/plik.cgi


Zatem ponawiam swoj poprzedni mail. Wykonaj jakis skrypt ktory ci
wywala blad, i pokaz fragment error loga apache (o co mu chodzi).

Jeszcze mi do glowy przyszla jedna rzecz:
gdzie ty te skrypty pisales?
Konkretnie chodzi o enterki. Styl unix czy windows?

Nie zabardzo to chce dzialac jak pierwsza linia zawiera kodowanie
windowsa.

Przeczytaj wicej wiadomoci



Temat: CGI nie dziaÂła tylko czemu...
Zgodnie z Twoim przepisem pod adresem: On Thu, 1 Jul 2004 12:55:07 +0200, "seboizm" <lekf@wp.pl wrote:

http://www.yahnet.one.pl/cgi-bin/plik.cgi

Zatem ponawiam swoj poprzedni mail. Wykonaj jakis skrypt ktory ci
wywala blad, i pokaz fragment error loga apache (o co mu chodzi).

Jeszcze mi do glowy przyszla jedna rzecz:
gdzie ty te skrypty pisales?
Konkretnie chodzi o enterki. Styl unix czy windows?

Nie zabardzo to chce dzialac jak pierwsza linia zawiera kodowanie
windowsa.

--
Wiesiek
--
Wiesiek

Przeczytaj wicej wiadomoci



Temat: CGI nie dziaÂła tylko czemu...
Witam zgodnie z Twoja sugestia zrobilem jak mowiles pod adresem
On Thu, 1 Jul 2004 12:55:07 +0200, "seboizm" <lekf@wp.pl wrote:

http://www.yahnet.one.pl/cgi-bin/plik.cgi

Zatem ponawiam swoj poprzedni mail. Wykonaj jakis skrypt ktory ci
wywala blad, i pokaz fragment error loga apache (o co mu chodzi).

Jeszcze mi do glowy przyszla jedna rzecz:
gdzie ty te skrypty pisales?
Konkretnie chodzi o enterki. Styl unix czy windows?

Nie zabardzo to chce dzialac jak pierwsza linia zawiera kodowanie
windowsa.

--
Wiesiek
--
Wiesiek

Przeczytaj wicej wiadomoci



Temat: CGI nie dziaÂła tylko czemu...
Witam!!!
Zastosowalem sie do Twojej sugestii i mam skrypt który dziala na stronie o
adresie
On Thu, 1 Jul 2004 12:55:07 +0200, "seboizm" <lekf@wp.pl wrote:

http://www.yahnet.one.pl/cgi-bin/plik.cgi

Zatem ponawiam swoj poprzedni mail. Wykonaj jakis skrypt ktory ci
wywala blad, i pokaz fragment error loga apache (o co mu chodzi).

Jeszcze mi do glowy przyszla jedna rzecz:
gdzie ty te skrypty pisales?
Konkretnie chodzi o enterki. Styl unix czy windows?

Nie zabardzo to chce dzialac jak pierwsza linia zawiera kodowanie
windowsa.

--
Wiesiek
--
Wiesiek

Przeczytaj wicej wiadomoci



Temat: /etc/suauth nie chce dzialac :(
Mam na to lepszy sposob. Dodajesz usera A do grupy "root" i ustawiasz dla
pliku /bin/su prawa 640 oraz oczywiscie suida i masz problem z glowy. Tylko
userze z grupy "root" beda mogli wykonywac /bin/su/

Pozdrawiam

Hej,

Chce Was prosic o porade co robie nie tak.
Chce aby w moim Debianie tylko uzytkownik userA mogl zmieniac swoja
osobowosc na roota przy pomocy komendy su.
A wiec:
Mam plik /etc/suauth
a w nim wpis:
root:ALL EXCEPT userA:DENY

Prawa pliku to 644 wlasciciel:root grupa:root

W mysl tego co wyczytalem w manualu to to powinno wystarczyc, a mimo to
nadal spod innych userow moge przechodzic na roota za pomoca polecenia su
:(

--
Pozdrawiam,
Marcin Betlej


Przeczytaj wicej wiadomoci



Temat: Instalacja Javy w Firefox
Pawel Paprocki napisał(a):


Czy moze ktos mi powiedziec albo wskazac miejsce gdzie moge poczytac jak
zainstalowac Jave pod Firefoxem ???

z gory dzieki


Wątek "Java w Firefox" na tej grupie (lub w jej archiwum):
==========

Najlepsza podobno jest Java w wydaniu BlackDown (patrz:
http://plugindoc.mozdev.org/linux.html#Java). U mnie przyajmniej działa.

Jest np. tu: ftp://sunsite.dk/mirrors/java-linux/JDK-1.4.2/i386/fcs/
Czytasz plik "INSTALL-j2re" i ściągasz plik .bin (np. do katalogu domowego).

chmod +x j2re-1.4.2-fcs-linux-i586-gcc3.2.bin
./j2re-1.4.2-fcs-linux-i586-gcc3.2.bin

mówisz "tak" licencji i już Java zainstalowana w katalogu domowym (ja
tak mam bo u mnie Firefox też jest tu rozpakowany). Co prawda
instalator-rozpakowywacz cos tam marudzi na końcu, ale działa.

Dodajesz ścieżkę Javy /bin do zmiennej PATH, np. w ~/.bash_profile:
PATH=$PATH:$HOME/bin:$HOME/j2re1.4.2/bin
export PATH
(zaloguj się ponownie)

Teraz już tylko dowiązanie symboliczne:

libjavaplugin_oji.so -~/j2re1.4.2/plugin/i386/mozilla/libjavaplugin_oji.so

czyli u mnie:
cd ~/firefox/plugins
ln -s ~/j2re1.4.2/plugin/i386/mozilla/libjavaplugin_oji.so
libjavaplugin_oji.so

(komenda LN w jednej linijce)
Tyle mi wystarczyło.

Przeczytaj wicej wiadomoci



Temat: DOBOR SKANERA


ANIOŁ wrote:
Jak najlatwiej sprawdzic czy dany model skanera jest obslugiwany przez
MDK 10 Official ?
Chce kupic jakis nowy skaner, najchetniej Plustek.

ANIOL


Ja ma skaner Benq 3300 na usb, śmiga bez problemu. Jak się postarasz to
można z poziomu systemu linux załadować także nowy "bios" w skanerze (plik
bin). Te firmę polecam.
A swoją drogą to zajrzyj na strone sane. Znajdziesz tam listę obsługiwanych
urządzeń.

http://www.sane-project.org/

Przeczytaj wicej wiadomoci



Temat: norman virus control
Michał Walenciak pisze:

Grzegorz Majewski wrote:

| Witam, kupiłem gazetę Linuks+ z programem NVC, nie potrafię go
| zainstalować.Co mam wykonać? Mozna jak dla dziecka?

a z czym dokładnie problem?


To plik bin. jest spakowany, kiedy go rozpakwuję jest dobrze. Potem nie
wiem jak gozainstalować. Szukam jakiejś znajomej ikonki i nic.Próbowłem
wrzucić na konsolę, ale nie chce nic z tym robić (za głośno się nie śmiać)
podrawiam-Grzegorz

Przeczytaj wicej wiadomoci



Temat: norman virus control


Grzegorz Majewski wrote:
To plik bin. jest spakowany, kiedy go rozpakwuję jest dobrze. Potem
nie wiem jak gozainstalować. Szukam jakiejś znajomej ikonki i
nic.Próbowłem wrzucić na konsolę, ale nie chce nic z tym robić (za
głośno się nie śmiać) podrawiam-Grzegorz


aha, a co dokładnie dostajesz po rozpakowaniu? kupe różnych plików ?
może pośród nich jest makefile i configure ?

Przeczytaj wicej wiadomoci



Temat: norman virus control
Dnia Fri, 18 Jan 2008 21:34:25 +0100, Grzegorz Majewski napisał(a):


Michał Walenciak pisze:
| Grzegorz Majewski wrote:

| Witam, kupiłem gazetę Linuks+ z programem NVC, nie potrafię go
| zainstalować.Co mam wykonać? Mozna jak dla dziecka?

| a z czym dokładnie problem?

To plik bin. jest spakowany,


Spróbuj nadać prawa wykonywania i wykonaj(jako root)

Przeczytaj wicej wiadomoci



Temat: skrypty startowe
In <slrn.pl.c33lgp.7l.msz@pogodno.lan  Marcin ``MySZ`` Sztolcman
wrote:

a programy, ktore odpalasz z skrypcie, gdzie maja skierowane swoje
wyjscie ? w powietrze ? domyslnie maja /dev/stderr...


[rmrmg@slack:~$] cat ./plik
#!/bin/bash
ps axu
ls -a
whoami
mount
[rmrmg@slack:~$]
[rmrmg@slack:~$] chmod +x ./plik
[rmrmg@slack:~$] ./plik /dev/null
[rmrmg@slack:~$]
Przeczytaj wicej wiadomoci



Temat: skrypty startowe
Nastał dzień boży wto, 17 lut 2004 o 08:56 GMT,
gdy rmrmg ośmielił się wstukać:

a programy, ktore odpalasz z skrypcie, gdzie maja skierowane swoje
wyjscie ? w powietrze ? domyslnie maja /dev/stderr...

[rmrmg@slack:~$] cat ./plik
#!/bin/bash
ps axu
[rmrmg@slack:~$] chmod +x ./plik
[rmrmg@slack:~$] ./plik /dev/null
[rmrmg@slack:~$]


$ echo -e '#!/bin/bash pst' test1.sh
$ chmod +x test1.sh          
$ ./test1.sh          
./test1.sh: line 2: pst: command not found
$ ./test1.sh /dev/null
./test1.sh: line 2: pst: command not found

        MySZ

ps. nie zauwazylem u Ciebie wczesniej '2/dev/null' - a o to mi sie
rozchodzilo
ps2. pokaz co to za skrypt ktory u Ciebie wywala wsio na ekran, wtedy
bedzie mozna pomyslec zcemu wywala

Przeczytaj wicej wiadomoci



Temat: Co to za partycja
Witam
Zainstalowałem Linyx'a RH 8,0 na dawnym RH 7,0 i się narobiło, jedna
partycja zgineła z pod Windows'a,
Pod Linux'em widzę:
/dev/hdc2   (pliki--bin,etc......)
/dev/hdc1  boot
none  /dev/shm     0%
ta ostatnia to chyba dawna Windows'a tylko nie wiem co z nia zrobić i czy da
się odzyskac dane z pod Win....
Co z tymn robić ????
Przeczytaj wicej wiadomoci



Temat: Co to za partycja

Mirek wrote:
Witam
Zainstalowałem Linyx'a RH 8,0 na dawnym RH 7,0 i się narobiło, jedna
partycja zgineła z pod Windows'a,
Pod Linux'em widzę:
/dev/hdc2   (pliki--bin,etc......)
/dev/hdc1  boot
none  /dev/shm     0%
ta ostatnia to chyba dawna Windows'a tylko nie wiem co z nia zrobić i czy
da się odzyskac dane z pod Win....
Co z tymn robić ????


Wywolaj fdisk /dev/hdc, potem nacisnij p i potem ENTER, a to, co zobaczysz,
przyslij tutaj. Potem nacisnij q i ENTER, zeby nic nie namieszac.

Pozdrawiam,
GK

Przeczytaj wicej wiadomoci



Temat: Co to za partycja
Mirek:

Zainstalowałem Linyx'a RH 8,0 na dawnym RH 7,0 i się narobiło, jedna
partycja zgineła z pod Windows'a,
Pod Linux'em widzę:
/dev/hdc2   (pliki--bin,etc......)
/dev/hdc1  boot
none  /dev/shm     0%
ta ostatnia to chyba dawna Windows'a tylko nie wiem co z nia zrobić i czy da
się odzyskac dane z pod Win....
Co z tymn robić ????


Gadasz i gadasz o tym w kółko a jak Cię proszę rzebyś wrzucił tu wynik
`fdisk -l` to udajesz że nie słyszysz. Co ty myślisz że tu same wróżki
siedzą! Wklej tego fdisk'a albo pogódź się z utratą danych.

Pozdrawiam
Luka

ps /dev/shm to nie jest to czego szukasz...

Przeczytaj wicej wiadomoci



Temat: Co to za partycja

Nie wygląda to dobrze :(

wpisz
#mount
( bez parametrów ) a zobaczysz które partycje ( i gdzie ) są
podmontowane - jeżeli któraś nie będzie widoczna w "wykazie" polecenia
mount to wtedy masz jeszcze szanse :) ( z bajtu Id nic w sumie nie
wynika ), ale imho na tym dysku siedzi linux. Gdyby hdc2 była luźna
to gdzie ten linux by się podział ;) BTW po co Ci taki wielki swap ?
Co do partycji /boot to profi widzę do tego podszedłeś ;))
Na moje oko masz tu chłopie ~100 MB na /boot ~20GB na całą resztę i
~400MB na swap - i ani grama windowsa...

Pozdrawiam
Luka

ps Jak Ci się chce to wrzuć wynik `mount`, ale imho 'ten okop jest
stracony'.

ps II Aha, instalowałeś RH ? Może wybrałeś opcje 'serwer' ?

Po wpisaniu #mount:
/dev/hdc2 on / type ext3 (rw)
none on /proc type proc (rw)
usbdevfs on /proc/bus/usb type usbdevfs (rw)
/dev/hdc1 on /boot type ext3 (rw)
none on /dev/pts type devpts (rw,gid=5, mode=620)
none on /dev/shm type tmpfs (rw)

Nie wybierałem opcji server
Po zamontowaniu hdc2 miałem pliki  'bin.....etc....'
A wcześniej chyba na hdc3 miałem RH 7,00
A na hdc1 swap.

Przeczytaj wicej wiadomoci



Temat: Co to za partycja

Mirek:
Po wpisaniu #mount:
/dev/hdc2 on / type ext3 (rw)
none on /proc type proc (rw)
usbdevfs on /proc/bus/usb type usbdevfs (rw)
/dev/hdc1 on /boot type ext3 (rw)
none on /dev/pts type devpts (rw,gid=5, mode=620)
none on /dev/shm type tmpfs (rw)

No to 'po ptokach'.

Nie wybierałem opcji server
Po zamontowaniu hdc2 miałem pliki  'bin.....etc....'
A wcześniej chyba na hdc3 miałem RH 7,00
A na hdc1 swap.

Ja też wcześniej miałem to wszystko troche inaczej ;)
Głowa do góry ( mam nadzieję że to nie były ważne dane ), mogło być
gorzej - mógł Ci się RH nie zainstalować...

Pozdrawiam
Luka

Chmm.......... no to trudno
Ale i tak wiele z tej lekcji wyniosłem, przynajmniej jestem troszkę bogatszy
w wiedzę o komendach na konsoli gdzie jak było widać byłem zielony.
Ale trafiłęm na gościa, który mi wytłumaczył. Dzięki za to i za
cierpliwość!!!!!!!!

Przeczytaj wicej wiadomoci



Temat: slrn i mozilla-firebird

Mateusz Prichacz wrote:
Ale co mam z tym zrobić? Nazwałem sobie skrypt 'mozilla-wrap',
dorzuciłem do /usr/local/bin, po czym, dodałem do .slrnrc 'set Xbrowser
"mozilla-wrap"'. Tak miało być? Bo ja nie kumaty w skryptach i innych
takich i dalej otwira mi linki w nowym oknie.
Podajesz mu jako argument url do otworzenia, nie pamiętam jak to w slrn
jest. Ja mam coś takiego:
set Xbrowser "mozilla %s /dev/null 2 /dev/null &"
A gdzie tu wywołanie skryptu?


No "mozilla" to wywołanie tego skryptu właśnie u Ciebie możesz zmienić na
"mozilla-wrap", ja mam "mozilla", bo mam ten skrypt w pliku ~/bin/mozilla i
ten skrypt jest ważniejszy od innych plików.
Przeczytaj wicej wiadomoci



Temat: slrn i mozilla-firebird
Zupełnym przypadkiem e napisał(a):

A gdzie tu wywołanie skryptu?
No "mozilla" to wywołanie tego skryptu właśnie u Ciebie możesz zmienić na
"mozilla-wrap", ja mam "mozilla", bo mam ten skrypt w pliku ~/bin/mozilla i
ten skrypt jest ważniejszy od innych plików.


No niestety, to nie robi tego co chcę, wciąż mam nowe okno, ale
pokombinuję, dzięki
Przeczytaj wicej wiadomoci



Temat: slrn i mozilla-firebird
...Mateusz Prichacz pisze:

Zupełnym przypadkiem e napisał(a):

A gdzie tu wywołanie skryptu?

No "mozilla" to wywołanie tego skryptu właśnie u Ciebie możesz zmienić na
"mozilla-wrap", ja mam "mozilla", bo mam ten skrypt w pliku ~/bin/mozilla i
ten skrypt jest ważniejszy od innych plików.

No niestety, to nie robi tego co chcę, wciąż mam nowe okno, ale
pokombinuję, dzięki


U mnie jest tak:
#v+
set Xbrowser "mozilla -remote 'openURL('%s',new-window)' 2/dev/null ||
mozilla '%s' &"
#v-

Oczywiście zmień new-window na new-tab, ja akurat wolę nowe okno :)

Pozdr.
Boswell

Przeczytaj wicej wiadomoci



Temat: Nie ISO ale BIN!!!!!
Dnia pon, 07 cze 2004 o 01:42 GMT, w artykule <ca09tm$6p@kastor.ds.pg.gda.plronek <ro@ds.pg.gda.plnapisał(a):


MrJ napisał(a):

| Mam maly problem, nie wiem jak zamontowac obraz plyty zapisany w *.bin.
jesli masz film w binie...
to nie musisz - odpalasz sobie mplayerem i dziala :)


heh ostatnio wpadłem na to przypadkiem - niechcąco wybrałem plik *.bin
akurat się szczęśliwie złożyło, że to film właśnie był..
i tu miłe zaskoczenie .. odtwarza ;]
Linux nie przestaje mnie zaskakiwać ;p

Przeczytaj wicej wiadomoci



Temat: Nie ISO ale BIN!!!!!
Był pon, 07. czerwiec 2004 17:14 gdy Fidodido <fidod@npnet.org
napisał(a):


Dnia pon, 07 cze 2004 o 01:42 GMT, w artykule
<ca09tm$6p@kastor.ds.pg.gda.plronek <ro@ds.pg.gda.pl
napisał(a):

| MrJ napisał(a):

| Mam maly problem, nie wiem jak zamontowac obraz plyty zapisany w
| *.bin.
| jesli masz film w binie...
| to nie musisz - odpalasz sobie mplayerem i dziala :)
heh ostatnio wpadłem na to przypadkiem - niechcąco wybrałem plik *.bin
akurat się szczęśliwie złożyło, że to film właśnie był..
i tu miłe zaskoczenie .. odtwarza ;]
Linux nie przestaje mnie zaskakiwać ;p


To jeszcze spróbuj otworzyć mplayer zrarowany film [takze rar r00 r01
itd]  :)

Przeczytaj wicej wiadomoci



Temat: Jak to zainstalować?


deadman_77 wrote:

| Mam plik *-i586-rpm.bin polecenie rpm -i nazwa_pliku nie działa ,

chmod 755 plik*.bin
./plik.bin

--
                                                   .             .-.   .
  http://linuxweb.linuxindex.pl/                             *    ) )
                                           .               .     '-'  .


tak tez zrobiłem ale , bez zmian:
 rpm -i j2re-1_4_1_04-linux-i586-rpm.bin
j2re-1_4_1_04-linux-i586-rpm.bin: read manifest failed: Success

Przeczytaj wicej wiadomoci



Temat: Jak to zainstalować?


deadman_77 wrote:
| Mam plik *-i586-rpm.bin polecenie rpm -i nazwa_pliku nie działa ,
| chmod 755 plik*.bin
| ./plik.bin
tak tez zrobiłem ale , bez zmian:
 rpm -i j2re-1_4_1_04-linux-i586-rpm.bin
j2re-1_4_1_04-linux-i586-rpm.bin: read manifest failed: Success


Nie zrobiłeś - widzisz gdzieś na górze polecenie rpm? Najpierw musisz ten
plik *uruchomić* - z niego zdekompresuje Ci się rpm i dopiero potem go
instalujesz... To java od SUN?

Przeczytaj wicej wiadomoci



Temat: Jak to zainstalować?


deadman_77 wrote:

| | Mam plik *-i586-rpm.bin polecenie rpm -i nazwa_pliku nie działa ,

| chmod 755 plik*.bin
| ./plik.bin

| tak tez zrobiłem ale , bez zmian:
|  rpm -i j2re-1_4_1_04-linux-i586-rpm.bin
| j2re-1_4_1_04-linux-i586-rpm.bin: read manifest failed: Success

Nie zrobiłeś - widzisz gdzieś na górze polecenie rpm? Najpierw musisz ten
plik *uruchomić* - z niego zdekompresuje Ci się rpm i dopiero potem go
instalujesz... To java od SUN?

--
                                                   .             .-.   .
  http://linuxweb.linuxindex.pl/                             *    ) )
                                           .               .     '-'  .


chmod zrobiłem wcześniej tylko nie pisałem bo to oczywiste
wypisałem to co konsola,
tak to jest java od SUN, ale po rozpakowaniu okazało sie że plik jest
uszkodzony, dziwne bo zassałem ze źródła.
Instalował  ktoś ta wersję?

Przeczytaj wicej wiadomoci



Temat: Jak to zainstalować?


| deadman_77 wrote:

| | Mam plik *-i586-rpm.bin polecenie rpm -i nazwa_pliku nie działa ,

| | chmod 755 plik*.bin
| | ./plik.bin

| tak tez zrobiłem ale , bez zmian:
|  rpm -i j2re-1_4_1_04-linux-i586-rpm.bin
| j2re-1_4_1_04-linux-i586-rpm.bin: read manifest failed: Success

| Nie zrobiłeś - widzisz gdzieś na górze polecenie rpm? Najpierw musisz
ten
| plik *uruchomić* - z niego zdekompresuje Ci się rpm i dopiero potem go
| instalujesz... To java od SUN?

| --
|                                                    .             .-.   .
|   http://linuxweb.linuxindex.pl/                             *    ) )
|                                            .               .     '-'  .

chmod zrobiłem wcześniej tylko nie pisałem bo to oczywiste
wypisałem to co konsola,
tak to jest java od SUN, ale po rozpakowaniu okazało sie że plik jest
uszkodzony, dziwne bo zassałem ze źródła.
Instalował  ktoś ta wersję?


Ja ją instalowałem wg. opisu na stronie Sun i chodzi dobrze.

Przeczytaj wicej wiadomoci



Temat: Emulacja (virtual) CD
 słucham se *Limbonic Art - Misanthropic Spectrum*, a tu nagle
 staje u drzwi /Michał 'Krasnall' M./ i drze się:


Czy znacie jakiś prosty i bezbolesny sposób na zaemulowanie CD z plików
bin/cue albo iso? Coś jak Daemon-tools pod Windows.


Co to znaczy "zaemulowanie"? Obraz ISO można po prostu podmontować:
# mount /obraz/płyty /katalog/gdzieś -o loop

Przeczytaj wicej wiadomoci



Temat: Emulacja (virtual) CD


On Fri, 26 Dec 2003 02:14:31 +0100, jerzy szczudłowski wrote:
 słucham se *Limbonic Art - Misanthropic Spectrum*, a tu nagle
 staje u drzwi /Michał 'Krasnall' M./ i drze się:

| Czy znacie jakiś prosty i bezbolesny sposób na zaemulowanie CD z plików
| bin/cue albo iso? Coś jak Daemon-tools pod Windows.

Co to znaczy "zaemulowanie"? Obraz ISO można po prostu podmontować:
# mount /obraz/płyty /katalog/gdzieś -o loop


Niestety to wymaga uprawnień roota.
Przydałoby się coś takiego jak wpis w fstabie, coś w stylu
#<sys plików   <pnkt. moutowania
*.iso           /mnt/iso
Teraz wydanie polecenia
$mount ~/plik/obraz.iso
moutowałoby w /mnt/iso/
Czy to jest wykonalne?

Przeczytaj wicej wiadomoci



Temat: Instalacja
Użytkownik budda popełnił co następuje:


ponieważ poprzedni wątek wyewoluował w stronę instalacji Javy, mam
dwa pytania:

1. Co z tą nieszczęsną Javą - producent udostępnia ją jako .bin, na
newbie.linux.pl napisano, żeby chmodem ustawić jako wykonywalny.
Ustawiłem. Tylko, co z tego? Nie wiem, jak to ugryźć.


  Eee, jak z konsoli uruchamiasz tenże plik .bin to nic się nie
dzieje?

Przeczytaj wicej wiadomoci



Temat: fake CD-ROM
Raz, dwa, trzy, niech no _panoramx_ patrzy:


Czy da sie na linuxie zamontowac plik *.cue tak, zeby byl widziany jako  
naped? Cos takiego pod windowsem potrafi zrobic bodajze Deamon tools...


Pliku *.cue to pewnie, nie. Są szanse, że plik obrazu tak, ale pewnie
najpierw trzeba go przekonwertować na zwykłe ISO (nazwa konwertera -
to jemu będzie potrzebne to *.cue - dla tego pliku *.bin jak
przypuszczam do wygooglania, coś na kształt bin2iso lub bchunk).

Potem normalnie przez loopback device:
sudo mount -o loop plik.obrazu /mnt/cośtam

Przeczytaj wicej wiadomoci



Temat: blad przy logowaniu (no shell: Premission denied.)
W artykule <ciut1j$9b@inews.gazeta.plcOyOte napisał(a):

podczas logowania zwyklego uzytkownika dostaje taki blad:
"login: no shell: Premission denied."
przy lorowaniu roota wszystko gra, w /etpasswd po nazwie usera mam
wpisane /bin/bash


Sprawdź jakie prawa ma katalog /bin i poszczególne pliki /bin/bash,
/bin/sh itd. U mnie jest 755.
Pozdrawiam.
Przeczytaj wicej wiadomoci



Temat: java blackdown
Dnia Sun, 12 Oct 2003 23:36:54 +0200
Łukasz Horodecki <da.ki@ggazeta.plnapisał(a):


U mnie (dla Mozilli i Netscape 7) to plik
/usr/local/share/j2re1.4.1/plugin/i386/mozilla/javaplugin_oji.so


Hehm. No właśnie. Tylko że u mnie nie ma takiego pliku. W ogóle nie mogę
znaleźć czegoś takiego jak libjavaplugin_oji.so. No i mam kłopot.
Instalowałem z pliku .bin i nie wywaliło mi żadnych krzaków. Wszystko
wyglądało O.K. :-[

Przeczytaj wicej wiadomoci



Temat: java blackdown
Dnia 13-10-2003 o 19:07, smok <m@op.plnapisał(a):


Hehm. No właśnie. Tylko że u mnie nie ma takiego pliku. W ogóle nie
mogę znaleźć czegoś takiego jak libjavaplugin_oji.so. No i mam kłopot.
Instalowałem z pliku .bin i nie wywaliło mi żadnych krzaków. Wszystko
wyglądało O.K. :-[


Jeśli dobrze pamiętam, u mnie po odpaleniu *.bin ten wypakował z siebie
*.rpm i dopiero zainstalowanie tego dało mi jave.

da.killa

Przeczytaj wicej wiadomoci



Temat: bin i cue - lamerskie
majac film w postaci plikow bin i cue postapilem zgodnie ze wskazowkami
znalezionymi w archiwum czyli w Nero dalem Plik-Nagraj plik obrazu..
wskazujac na posiadany plik .cue

Po wypaleniu mam na plytce katalogi:
-Cdi (pusty)
-Ext ( z plikami Lot_x.vcd i Psd_x.vcd)
-Mpegav (z plikiem Aveseq01.dat)
-Segment (pusty)
-Vcd (zz kilkoma plikami .vcd)

Pomozcie bo nie mam zielonego pojecia co dalej z tym fantem zrobic; a filmik
chcialbym
zobaczyc.
Prosze o wyrozumialosc no i o pomoc:)

Piotr

Przeczytaj wicej wiadomoci



Temat: bin i cue - lamerskie

Pewnego pięknego dnia "Piotr" <p@gazeta.plnapisał:...


majac film w postaci plikow bin i cue postapilem zgodnie ze wskazowkami
znalezionymi w archiwum czyli w Nero dalem Plik-Nagraj plik obrazu..
wskazujac na posiadany plik .cue

Po wypaleniu mam na plytce katalogi:
-Cdi (pusty)
-Ext ( z plikami Lot_x.vcd i Psd_x.vcd)
-Mpegav (z plikiem Aveseq01.dat)
-Segment (pusty)
-Vcd (zz kilkoma plikami .vcd)

Pomozcie bo nie mam zielonego pojecia co dalej z tym fantem zrobic; a
filmik
chcialbym
zobaczyc.
Prosze o wyrozumialosc no i o pomoc:)


nagrales obraz plyty w formacie videocd, najlepiej uzyj programu powerdvd,
albo innego playera vdc
jezeli masz wlasciwe kodeki, to mozesz odpalic plik Aveseq01.dat zwyklym
media playerem - to zwykly mpg

starek

Przeczytaj wicej wiadomoci



Temat: bin i cue - lamerskie


majac film w postaci plikow bin i cue postapilem zgodnie ze wskazowkami
znalezionymi w archiwum czyli w Nero dalem Plik-Nagraj plik obrazu..
wskazujac na posiadany plik .cue

Po wypaleniu mam na plytce katalogi:
-Cdi (pusty)
-Ext ( z plikami Lot_x.vcd i Psd_x.vcd)
-Mpegav (z plikiem Aveseq01.dat)
-Segment (pusty)
-Vcd (zz kilkoma plikami .vcd)

Pomozcie bo nie mam zielonego pojecia co dalej z tym fantem zrobic; a
filmik
chcialbym
zobaczyc.
Prosze o wyrozumialosc no i o pomoc:)


mozesz zgrac plik aveseq01.dat na hdd i zmienic rozszerzenie na .mpg i dalej
wiadomo.
na przyszlosc do VCD polecam Isobuster'a ( lezy na www.cdrinfo.pl) i nim
rozpakowac .bin ( chyba ze chcesz to ogladac w stacjonarnym odtwarzaczu dvd)

Przeczytaj wicej wiadomoci



Temat: First time.. najgorszy :P
Jest jakas mozliwosc podejrzenia co jest w pliku bin bez nagrwania go na cd?
.. totalnie sie na tym nie znam stad pytanie. Nie przegladalem archiwum...
bo jest 1:40 i juz nie kontaktuje, a nie wiem czy dalej zasysac film czy nie
(czytaj zostawic kompa na nocke by stary rano morde pilowal ze prad żre) :P
Przeczytaj wicej wiadomoci



Temat: First time.. najgorszy :P

Jest jakas mozliwosc podejrzenia co jest w pliku bin bez nagrwania go na
cd?
.. totalnie sie na tym nie znam stad pytanie. Nie przegladalem archiwum...
bo jest 1:40 i juz nie kontaktuje, a nie wiem czy dalej zasysac film czy
nie
(czytaj zostawic kompa na nocke by stary rano morde pilowal ze prad żre)


:P

 http://www.smart-projects.net/isobuster/

Przeczytaj wicej wiadomoci



Temat: First time.. najgorszy :P
Użytkownik Kaczy napisał:


Jest jakas mozliwosc podejrzenia co jest w pliku bin bez nagrwania go na cd?
.. totalnie sie na tym nie znam stad pytanie. Nie przegladalem archiwum...
bo jest 1:40 i juz nie kontaktuje, a nie wiem czy dalej zasysac film czy nie
(czytaj zostawic kompa na nocke by stary rano morde pilowal ze prad żre) :P


nic nie rozumiem
jeżeli nie masz ściągniętego całego to nie podejżysz
jak masz całość to IsoBusert i rozpakowujesz Aveeq01.dat

Przeczytaj wicej wiadomoci



Temat: Krótkie wskazówki jak upchnąć Hotel Zacisze na 2 DVD
Ponieważ nie ma za bardzo chętnych, opiszę w dużym skrócie:
1. Ściągnąć isobustera,
http://www.smart-projects.net/isobusterdownload.htm
2. Ściągnąć trialową wersję DVD-Lab Pro
http://www.mediachance.com/download.htm
(trialowa wersja ma pełną funkcjonalność)
3. Za pomocą isobustera rozpakować pliki *.bin, w tym celu otwieramy
plik *.cue za pomocą isobustera, następnie klikamy w prawym panelu
Track_02 i z prawego panelu wypakowujemy plik Track_02 klikając na niego
prawym przyciskiem-extract track 02-Treat as VIDEO data...
i podajemy katalog docelowy.

Następnie wciągamy pliki jpeg do projektu w dvd-lab-pro. Program ten
jest dość intuicyjny, więc nie będę się rozpisywał.

Przeczytaj wicej wiadomoci



Temat: Nie bijcie - pomoc przy SVCD
Witam

Googlałem! Serio! I kupa! ;(
Niewiele znalazłem.
Porady dotyczyły playerów - więc zassałem kilka i nic :(
Jedynym 'playerem', który to ugryzł jest VLC, który raczej
nie jest najlepszym rozwiązaniem :(
A chodzi o film "Alien v Predator" (nie śmiać się! Starzy
ludzie czasem też chcą obejrzeć głupoty :-) ).
Konkretnie film z emule: "Alien.VS.Predator.TS.SVCD-maVen."
CD1 i CD2.
W życiu nie miałem do czynienia z SVCD, nie 'siedzę' zbytnio
w temacie. Raz na ruski obejrzę coś, stąd brak wiedzy.
A zgodzicie się, że nie ma sensu, żeby człek przetrawiał dziesiątki
stron informacji, gdy inni juz to przeszli, prawda? To się
nazywa 'postęp' ;)
Więc jeśli chcecie zrypać - to zrypcie, ale w PS podajcie odpowiedź :)
Pytanka:
1. Zassałem pliki (bin i cue). Podłączyłem pod virtuala.
    Mam kilka katalogów, w tym jeden zawiera plik MPG.
    Próba odtworzenia, oprócz wspomnianego VLC, to porażka.
    Czym odtworzyć? Czy MUSZĘ mieć odtwarzacz DVD?
    W ramach uzupełnienia: przez jakiś czas komputer posiadał
    DVD. Wtedy zainstalowałem m.in. Alcohol i emulowałem napęd.
    Teraz już nie ma DVD, ale napęd emulowany jest nadal jako DVD.
    Ma to jakieś znaczenie?
2. Jeśli odtworzenie to jakiś problem, to czym i jak, szybko, łatwo
    i przyjemnie przerobić ów filmik na 'zwykłe' Divx?

Z góry dzięki za info.
Pozdrawiam

Przeczytaj wicej wiadomoci



Temat: Nie bijcie - pomoc przy SVCD

Panowała cisza, gdy wtem...
...Beer nagle zerwał(a) się z miejsca i niespodziewanie zabrał(a) głos:

1. Zassałem pliki (bin i cue). Podłączyłem pod virtuala.
    Mam kilka katalogów, w tym jeden zawiera plik MPG.
    Próba odtworzenia, oprócz wspomnianego VLC, to porażka.
    Czym odtworzyć?


Nie musisz koniecznie otwierać pliku .MPEG, po prostu wskaż
playerowi(np.MediaPlayerClassic) całą płytę do odtwarzania :
- File/Open CD_ROM. Jeżeli rozpozna SVCD to już będzie wiedział co z tym
zrobić.

Przeczytaj wicej wiadomoci



Temat: SVCD czym wypalic

Pierwotna wiadomość <<<<<<<<<<<<<<<<<<


Am 02-06-03, 12:42:43, napisał "Wiewior" <wiew@sound.w.pl na temat Re:
SVCD czym wypalic:


Użytkownik "Adramelech" <adr@tu.nie.ma napisał w wiadomo?ci
[...]
Powstały image płyty svcd ma 892MB. I nie daje się tego wypalić bez
overobningu. A wej?ciowy mpeg miał 775MB.
Co? tu jest nie tak;-(
Ja bym mimo wszystko stawial na nieprawidlowe kodowanie do
MPEG'a -przypuszczam, ze te programy sprawdzja przy okazji
palenia/tworzenia
obrazu zgodnosc pliku ze stndardem i go zdziebko "naprawiaja"...
    Wiewior


Może tak, może nie. Panowie, 'robiłem' niedawno film przy pomocy
DVD2SVCD, powstały dwa pliki bin i 2 pliki cue. Po zapakowaniu do NERO,
wielkość plików bin wynosiła 875 Mb i 814Mb. Zapodałem do palenia na CDR
700Mb i się WYPALIŁO!!!. Używam TEAC CD-W58E i NERO 5.5.8.2

         amus

Przeczytaj wicej wiadomoci



Strona 1 z 4 • Zostao znalezionych 460 wypowiedzi • 1, 2, 3, 4